首页粤语《宋念宇》[FLAC/MP3/无损]百度云网盘免费下载地址

《宋念宇》[FLAC/MP3/无损]百度云网盘免费下载地址

时间2022-12-04 06:03:00分类粤语浏览69

《宋念宇》[FLAC/MP3/无损]百度云网盘免费下载地址在文尾有提供,你可以直接点击跳到文尾查看并下载。

《宋念宇》[FLAC/MP3/无损]百度云网盘免费下载地址

微信截图_20221203213147.jpg (80.95 KB, 下载次数: 0) 下载附件 昨天21:36 上传 专辑介绍: 「五年了,是你教会我等待,所以我们同在。」 from小宇-宋念宇 每一次的等待,都是一次期待 学会理解 和 感受 无论 自己 / 世界 / 周遭的环境,多不完美 他 用音乐与我们同在 超过一千个昼夜光影的琢磨等待 用最温和的力量对抗黑暗绝望 忘了人们心中的规则 活出自己的顽固狂热 因为有爱 所以期待 因为期待 所以值得等待 在此刻 我们的等待 都得到响应了 等待五年 用他从未改变的初衷 在黑暗里遇见彼此 找到属于自己的光 2012年底,小宇-宋念宇发行第三张全创作专辑【再一次】后,五年未和歌迷们见面,中间他经历了兵役、遇到了唱片公司改组,甚至萌生了退居幕后制作的想法,直到加入新的经纪公司喜鹊娱乐、加盟华纳音乐后,陆续为张惠妹、王心凌、A-Lin、吴莫愁、Erika、萧敬腾等多位歌手编写创作歌曲,新的创作从不间断。因为低潮让他更看得清楚自己,在黑暗里摸索、循着光前进,找到属于自己的那道光芒,『音乐』就是他对生命的诠释和狂热。 小宇-宋念宇首度担纲全专辑制作人 一手包办作曲、合声编写、编曲概念 忠于自我的全新音乐风格 与众音乐人连手打造超世代音乐潮流 有人问小宇:「你有不喜欢的音乐类型吗?」他说:「我没有不喜欢的音乐,只有不认识的音乐。」 在艺工队服役期间,小宇-宋念宇找到了新的旋律、曲式,也许那是你不曾听过的小宇-宋念宇,但当你开始听他的音乐的同时,你已跟着他无时无刻新的曲风前进。他从不是为了标新立异想走在最前面,而是渴望创造新的、属于自己的音乐风格。新专辑小宇-宋念宇与音乐上的伙伴黄文萱合作,与众多音乐人、编曲家在相互试验琢磨的过程里,完成每一首在默契加乘下的全新宇式音乐作品。小宇-宋念宇首次担纲专辑制作人,从自我/爱情,到反思社会现象的10+1首创作,小宇说:「如果你听了这些歌,能够有同感,就够了。」他用音乐与我们同在,用顽固坚持响应着对音乐的初衷。 初单曲「同在」以3D构成虚幻霓虹灯管视觉 宣告全新宇式音乐强势回归乐坛 专辑力邀影像美学摄影师胡世山掌镜 走进迷幻复古舞池 捕捉光影间最真实的小宇-宋念宇 时隔五年,新专辑首波同名主打「同在」抢先释出,单曲视觉以3D建模构成画面,将电子音乐元素、霓虹灯管所营造的空间感和色彩与音乐相呼应,也宣告着小宇-宋念宇全新专辑【同在】的音乐概念与强烈风格,未见其人先闻其声的企图与信心,即将强势回归乐坛。 新专辑并与影像美学摄影师胡世山再度合作,以强烈的摄影风格打造专辑全新视觉,特地前往西门町国标舞复古舞厅取景,以红蓝灯光营造音乐氛围,更以光线的制造流动的时间感,当小宇-宋念宇与舞池间的群众擦身而过的同时,也成了另一种『同在』的概念,既是共存也像是平行在不同时空上的个体,各自前进着;而摄影师特地营造的光感、局部投射光线,更象征着小宇-宋念宇这些年等待的心境:唯有在黑暗中才能更看得清楚光亮,找到那个最真实的自我。 感受活着的快感,体验生命的挫败 其实我们都一样,为了同样的事哭或笑 一路上的黑暗,心会揭开 那就是存在,那就是力量 我的你,你的我,『同在』了 专辑曲目: 1. 同在 2. 慣性取暖 3. 原來的你 4. 不好過 5. 這樣好不好 6. 所謂的愛 7. 給我你的壞 8. 理想時代 9. 被愛妄想 10. 我呢 11. 我們...能回到原來的樣子嗎? Exact Audio Copy V1.3 from 2. September 2016 EAC 抓取日志文件从5. 二月 2018, 12:42 宋念宇 / 同在 使用驱动器:ASUS SDRW-08D2S-U Adapter: 1ID: 0 读取模式 : 可靠Secure 使用精确流 : 是 清空音频缓存 : 是 使用 C2 指示器 : 否 读取偏移校正: : 0 读取 Lead-In 和 Lead-Out : 否 用静音填充抓取中丢失偏移的采样 : 是 去除首尾静音块 : 否 在CRC 计算中使用了空样本 : 是 已用接口 : Win NT 及 2000 本地 Win32 接口 所用输出模式: : 内部 WAV 函数 样本格式 : 44.100 Hz; 16 Bit; 立体声 已抓取 CD 的 TOC 音轨 | 起始 | 长度 |起始扇区|结束扇区 -------------------------------------------- 1 |0:00.00 |4:13.51 | 0 |19025 2 |4:13.51 |4:23.33 |19026 |38783 3 |8:37.09 |4:35.46 |38784 |59454 4 | 13:12.55 |4:32.33 |59455 |79887 5 | 17:45.13 |5:50.65 |79888 | 106202 6 | 23:36.03 |3:12.61 | 106203 | 120663 7 | 26:48.64 |3:41.38 | 120664 | 137276 8 | 30:30.27 |3:50.32 | 137277 | 154558 9 | 34:20.59 |4:34.70 | 154559 | 175178 10 | 38:55.54 |4:14.70 | 175179 | 194298 11 | 43:10.49 |2:38.51 | 194299 | 206199 范围状态及错误 已选择范围 文件名 C:\Users\磊.000\Desktop\宋念宇 - 同在.wav 峰值电平 100.0 % 抓取速度 4.3 X 范围质量 99.9 % 复制 CRC C6C6F019 复制成功 没有错误发生 状态报告结尾 ==== 记录校验日志 C08F7DFF484B42952E52FE46A1F17F39C00F0A86508F24DED5D4D24E46B07EF7 ==== 试听曲目:同在 链接:包年会员可查看

《宋念宇》[FLAC/MP3/无损]百度云网盘免费下载地址及提取码如下:

请登录后查阅

宋念宇mp3下载,宋念宇mp3百度云,宋念宇mp3网盘下载,宋念宇mp3免费下载地址由91f音乐网www.91f.net搜集分享,如果你觉得有侵犯你的权益,授权事宜、对本内容有异议或投诉,敬请联系网站管理员,我们将尽快回复您,谢谢合作!

不能说的秘密《曹杨Young》[FLAC/MP3/无损]百度云网盘免费下载地址 黑客帝国《Maroon 5》[FLAC/MP3/无损]百度云网盘免费下载地址

游客 回复需填写必要信息