首页粤语In the Lonely Hour (Drowning Shadows Edition)《Sam Smith》[FLAC/MP3/无损]百度云网盘免费下载地址

In the Lonely Hour (Drowning Shadows Edition)《Sam Smith》[FLAC/MP3/无损]百度云网盘免费下载地址

时间2022-12-04 06:04:00分类粤语浏览73

In the Lonely Hour (Drowning Shadows Edition)《Sam Smith》[FLAC/MP3/无损]百度云网盘免费下载地址在文尾有提供,你可以直接点击跳到文尾查看并下载。

In the Lonely Hour (Drowning Shadows Edition)《Sam Smith》[FLAC/MP3/无损]百度云网盘免费下载地址

微信截图_20221203181454.jpg (102.85 KB, 下载次数: 0) 下载附件 昨天18:21 上传 专辑介绍: 英国BBC年度之声冠军、全英音乐奖评审团特别奖得主Sam Smith于2015年 11 月 6 日发行个人首张录音室专辑的全新改版版本《In the Lonely Hour (Drowning Shadows Edition)》,该版本在增加七首新曲的同时对原专辑的曲序进行了一定程度的调整。 专辑曲目: CD1: 1. Money On My Mind 2. Good Thing 3. Stay With Me 4. Leave Your Lover 5. I'm Not the Only One 6. I've Told You Now 7. Like I Can 8. Life Support 9. Not In That Way 10. Lay Me Down 11. Restart 12. Latch 13. La La La 14. Make It to Me CD2: 15. Drowning Shadows 16. Love Is a Losing Game 17. Nirvana 18. How Will I Know 19. Omen 20. Latch 21. Stay With Me 22. I'm Not The Only One 23. Lay Me Down CD1: Exact Audio Copy V1.3 from 2. September 2016 EAC 抓取日志文件从22. 三月 2017, 17:29 Sam Smith / In The Lonely Hour (Drowning Shadows Edition)(CD1) 使用驱动器:Optiarc DVD RW AD-7560A Adapter: 1ID: 0 读取模式 : 可靠Secure 使用精确流 : 是 清空音频缓存 : 是 使用 C2 指示器 : 否 读取偏移校正: : 6 读取 Lead-In 和 Lead-Out : 否 用静音填充抓取中丢失偏移的采样 : 是 去除首尾静音块 : 否 在CRC 计算中使用了空样本 : 是 已用接口 : Win NT 及 2000 本地 Win32 接口 所用输出模式: : 内部 WAV 函数 样本格式 : 44.100 Hz; 16 Bit; 立体声 已抓取 CD 的 TOC 音轨 | 起始 | 长度 |起始扇区|结束扇区 -------------------------------------------- 1 |0:00.00 |3:13.42 | 0 |14516 2 |3:13.42 |3:21.12 |14517 |29603 3 |6:34.54 |2:52.51 |29604 |42554 4 |9:27.30 |3:08.28 |42555 |56682 5 | 12:35.58 |3:59.32 |56683 |74639 6 | 16:35.15 |3:30.13 |74640 |90402 7 | 20:05.28 |2:47.18 |90403 | 102945 8 | 22:52.46 |2:53.14 | 102946 | 115934 9 | 25:45.60 |2:52.43 | 115935 | 128877 10 | 28:38.28 |4:13.17 | 128878 | 147869 11 | 32:51.45 |3:52.52 | 147870 | 165321 12 | 36:44.22 |3:43.41 | 165322 | 182087 13 | 40:27.63 |3:39.19 | 182088 | 198531 14 | 44:07.07 |2:43.32 | 198532 | 210788 范围状态及错误 已选择范围 文件名 C:\Users\磊\Desktop\Sam Smith - In The Lonely Hour (Drowning Shadows Edition)(CD1).wav 峰值电平 99.8 % 抓取速度 4.3 X 范围质量 99.9 % 复制 CRC A0BA2B03 复制成功 没有错误发生 AccurateRip 摘要 音轨1精确地校准抓取200)[B79A464B](AR v2) 音轨2精确地校准抓取200)[323FB2DF](AR v2) 音轨3精确地校准抓取200)[0CBC7C52](AR v2) 音轨4精确地校准抓取200)[BC676CB0](AR v2) 音轨5精确地校准抓取200)[DE8B8ECB](AR v2) 音轨6精确地校准抓取200)[4C97F210](AR v2) 音轨7精确地校准抓取200)[D5CFE35B](AR v2) 音轨8精确地校准抓取200)[2431B8D5](AR v2) 音轨9精确地校准抓取200)[349ED357](AR v2) 音轨 10精确地校准抓取200)[1B4636F8](AR v2) 音轨 11精确地校准抓取200)[363A8631](AR v2) 音轨 12精确地校准抓取200)[92745FD9](AR v2) 音轨 13精确地校准抓取200)[ECFF2D68](AR v2) 音轨 14精确地校准抓取200)[EA87DE4A](AR v2) 所有音轨精确校准抓取 状态报告结尾 ---- CUETools DB Plugin V2.1.6 CD2: Exact Audio Copy V1.3 from 2. September 2016 EAC 抓取日志文件从22. 三月 2017, 17:13 Sam Smith / In The Lonely Hour (Drowning Shadows Edition) (CD2) 使用驱动器:Optiarc DVD RW AD-7560A Adapter: 1ID: 0 读取模式 : 可靠Secure 使用精确流 : 是 清空音频缓存 : 是 使用 C2 指示器 : 否 读取偏移校正: : 6 读取 Lead-In 和 Lead-Out : 否 用静音填充抓取中丢失偏移的采样 : 是 去除首尾静音块 : 否 在CRC 计算中使用了空样本 : 是 已用接口 : Win NT 及 2000 本地 Win32 接口 所用输出模式: : 内部 WAV 函数 样本格式 : 44.100 Hz; 16 Bit; 立体声 已抓取 CD 的 TOC 音轨 | 起始 | 长度 |起始扇区|结束扇区 -------------------------------------------- 1 |0:00.00 |4:14.59 | 0 |19108 2 |4:14.59 |2:57.61 |19109 |32444 3 |7:12.45 |3:22.09 |32445 |47603 4 | 10:34.54 |3:52.18 |47604 |65021 5 | 14:26.72 |3:25.33 |65022 |80429 6 | 17:52.30 |8:06.57 |80430 | 116936 7 | 25:59.12 |2:53.40 | 116937 | 129951 8 | 28:52.52 |3:43.12 | 129952 | 146688 9 | 32:35.64 |3:40.52 | 146689 | 163240 范围状态及错误 已选择范围 文件名 C:\Users\磊\Desktop\Sam Smith - In The Lonely Hour (Drowning Shadows Edition) (CD2).wav 峰值电平 99.8 % 抓取速度 4.0 X 范围质量 99.9 % 复制 CRC EE393589 复制成功 没有错误发生 AccurateRip 摘要 音轨1精确地校准抓取19)[E25F82F4](AR v2) 音轨2精确地校准抓取19)[DAA4631D](AR v2) 音轨3精确地校准抓取19)[4E740A07](AR v2) 音轨4精确地校准抓取19)[392A91A2](AR v2) 音轨5精确地校准抓取19)[7010E402](AR v2) 音轨6精确地校准抓取19)[0EC6DAD0](AR v2) 音轨7精确地校准抓取19)[CA240661](AR v2) 音轨8精确地校准抓取19)[F8CF44FD](AR v2) 音轨9精确地校准抓取19)[C575E350](AR v2) 所有音轨精确校准抓取 状态报告结尾 ---- CUETools DB Plugin V2.1.6 试听曲目:Stay With Me 链接:包年会员可查看

In the Lonely Hour (Drowning Shadows Edition)《Sam Smith》[FLAC/MP3/无损]百度云网盘免费下载地址及提取码如下:

请登录后查阅

Sam Smithmp3下载,Sam Smithmp3百度云,Sam Smithmp3网盘下载,Sam Smithmp3免费下载地址由91f音乐网www.91f.net搜集分享,如果你觉得有侵犯你的权益,授权事宜、对本内容有异议或投诉,敬请联系网站管理员,我们将尽快回复您,谢谢合作!

In the Lonely Hour (Drowning Shadows Edition)
《大笨(WAV母带专辑合集)[Hi》[FLAC/MP3/无损]百度云网盘免费下载地址 失眠《《失眠》》[FLAC/MP3/无损]百度云网盘免费下载地址

游客 回复需填写必要信息