首页粤语《OneRepublic》[FLAC/MP3/无损]百度云网盘免费下载地址

《OneRepublic》[FLAC/MP3/无损]百度云网盘免费下载地址

时间2022-12-04 06:04:00分类粤语浏览77

《OneRepublic》[FLAC/MP3/无损]百度云网盘免费下载地址在文尾有提供,你可以直接点击跳到文尾查看并下载。

《OneRepublic》[FLAC/MP3/无损]百度云网盘免费下载地址

微信截图_20221203190859.jpg (53.4 KB, 下载次数: 0) 下载附件 昨天19:11 上传 微信截图_20221203190911.jpg (38.86 KB, 下载次数: 0) 下载附件 昨天19:11 上传 专辑介绍: ★以成名作"Apologize"缔造1000万张下载销售的流行摇滚乐团2013年劲碟 ★首支单曲"Feel Again"挺进全美热门单曲榜、流行单曲榜与成人抒情榜TOP40 ★专辑邀请潮派音乐製作菁英Philippe Zdar (*Depeche Mode)、Jeff Bhasker (*fun.)、Benny Blanco (*Maroon 5)等齐力打造 以"Apologize"缔造1000万张下载销售、入选美国告示牌杂志热门单曲榜「史上最畅销单曲名单」的OneRepublic乐团,在2013年大碟【Native】中展现成军以来最辽阔的音乐视野,环游巴黎、希腊、伦敦、纽约、西雅图、温哥华等国际大都会进行创作与录製,大胆的将他们擅长营造节奏劲道、格局、气势的流行摇滚乐风格与时尚电音、福音、蓝调、民谣进行挑战类型界线的混搭,创造出一张饶富奇想色彩与情感动力的流行摇滚大作! 打造过Leona Lewis的"Bleeding Love"、Adele的"Rumour Has It"等流行畅销曲的乐团主唱/创作核心人物Ryan Tedder,在2012年看了由瑞典DJ与製作人组成的电音组合Swedish House Mafia的演出之后,触动了之前曾经与DJ文化先锋Paul Oakenfold有过绝佳合作经验的音乐神经。Ryan带领乐团与Philippe Zdar(*Depeche Mode、Phoenix)、Jeff Bhasker(*The Rolling Stones、fun.)、Benny Blanco(*Maroon 5、Rihanna)等潮派製作菁英进行五花八门的音乐实验,众人在採撷时尚电音的节奏动能的同时,又灌溉了传统吉他摇滚乐最质朴的情感养份,接上美国南方蓝调的爆发电流,完成一张有著超强节奏驾驭力,却又不流失歌曲情感张力的专辑。 【Native】处处充满多样融合与对比的创意:在销售所得捐给关怀儿童权利组织「Save The Children」的单曲"Feel Again"中邀请瓜地马拉的孩童参与合唱,细腻揉合了福音风格的旋律,流露著手打拍子般整齐划一的和声,书写著关于救赎的歌词,是一首震撼心弦的作品;在碰触黑暗主题的歌曲"If I Lose Myself"中,乐团藉由宏伟的音乐氛围来堆砌情感的动能,同时也选择以耀眼夺目的舞曲节奏来掩护较为忧鬱的歌曲主题。专辑中多首满载著快乐能量的歌曲也各具特色,像是创作灵感源自于披头四名曲"Hey Jude"的"Something I Need"拥有激起乐迷齐声高唱的副歌段落,至于"Life In Color"则是透过飞驰快感的鼓击节拍与暖色调的合成器音色与Ryan Tedder宽广的唱腔来酝酿情境。Ryan表示【Native】是一张非常摩登的专辑,是一张2013年的生活快照,专辑中的歌曲有关生死、爱、希望、绝望、信念、失败,包含了所有的人类情感,试著在没有说教色彩的情况下为歌词增添一点份量,做出一种能够与人们产生连结的音乐。 专辑曲目: 1. Counting Stars 2. Love Runs Out 3. If I Lose Myself 4. Feel Again 5. What You Wanted 6. I Lived 7. Light It Up 8. Can't Stop 9. Au Revoir 10. Burning Bridges 11. Something I Need 12. Preacher 13. Don't Look Down 14. Something's Gotta Give 15. Life In Color 16. If I Lose Myself 17. What You Wanted 18. Burning Bridges 19. If I Lose Myself Exact Audio Copy V1.3 from 2. September 2016 EAC 抓取日志文件从5. 四月 2017, 18:18 OneRepublic / Native 使用驱动器:Optiarc DVD RW AD-7560A Adapter: 1ID: 0 读取模式 : 可靠Secure 使用精确流 : 是 清空音频缓存 : 是 使用 C2 指示器 : 否 读取偏移校正: : 6 读取 Lead-In 和 Lead-Out : 否 用静音填充抓取中丢失偏移的采样 : 是 去除首尾静音块 : 否 在CRC 计算中使用了空样本 : 是 已用接口 : Win NT 及 2000 本地 Win32 接口 所用输出模式: : 内部 WAV 函数 样本格式 : 44.100 Hz; 16 Bit; 立体声 已抓取 CD 的 TOC 音轨 | 起始 | 长度 |起始扇区|结束扇区 -------------------------------------------- 1 |0:00.00 |4:17.29 | 0 |19303 2 |4:17.29 |3:44.64 |19304 |36167 3 |8:02.18 |4:01.42 |36168 |54284 4 | 12:03.60 |3:05.06 |54285 |68165 5 | 15:08.66 |4:01.16 |68166 |86256 6 | 19:10.07 |3:54.33 |86257 | 103839 7 | 23:04.40 |4:10.15 | 103840 | 122604 8 | 27:14.55 |4:09.43 | 122605 | 141322 9 | 31:24.23 |4:50.36 | 141323 | 163108 10 | 36:14.59 |4:17.43 | 163109 | 182426 11 | 40:32.27 |4:00.06 | 182427 | 200432 12 | 44:32.33 |4:05.14 | 200433 | 218821 13 | 48:37.47 |1:40.11 | 218822 | 226332 14 | 50:17.58 |4:51.57 | 226333 | 248214 15 | 55:09.40 |3:22.56 | 248215 | 263420 16 | 58:32.21 |3:50.15 | 263421 | 280685 17 | 62:22.36 |3:23.55 | 280686 | 295965 18 | 65:46.16 |4:35.50 | 295966 | 316640 19 | 70:21.66 |3:35.14 | 316641 | 332779 范围状态及错误 已选择范围 文件名 C:\Users\磊\Desktop\OneRepublic - Native.wav 峰值电平 100.0 % 抓取速度 4.9 X 范围质量 100.0 % 复制 CRC BEC7491A 复制成功 没有错误发生 状态报告结尾 ---- CUETools DB Plugin V2.1.6 试听曲目:Love Runs Out 链接:包年会员可查看

《OneRepublic》[FLAC/MP3/无损]百度云网盘免费下载地址及提取码如下:

请登录后查阅

OneRepublicmp3下载,OneRepublicmp3百度云,OneRepublicmp3网盘下载,OneRepublicmp3免费下载地址由91f音乐网www.91f.net搜集分享,如果你觉得有侵犯你的权益,授权事宜、对本内容有异议或投诉,敬请联系网站管理员,我们将尽快回复您,谢谢合作!

《大笨(WAV母带专辑合集)[Hi》[FLAC/MP3/无损]百度云网盘免费下载地址 失眠《《失眠》》[FLAC/MP3/无损]百度云网盘免费下载地址

游客 回复需填写必要信息