首页粤语Forget the World《Afrojack》[FLAC/MP3/无损]百度云网盘免费下载地址

Forget the World《Afrojack》[FLAC/MP3/无损]百度云网盘免费下载地址

时间2022-12-04 06:04:00分类粤语浏览80

Forget the World《Afrojack》[FLAC/MP3/无损]百度云网盘免费下载地址在文尾有提供,你可以直接点击跳到文尾查看并下载。

Forget the World《Afrojack》[FLAC/MP3/无损]百度云网盘免费下载地址

微信截图_20221203205520.jpg (114.22 KB, 下载次数: 0) 下载附件 昨天20:55 上传 专辑介绍: ★2011-2013年名列DJ Mag杂志年度百大DJ名单前10名的荷兰电音DJ首张大碟 ★专辑窜升全美舞曲/电音专辑榜第2名 ★包括:英国舞曲榜第5名单曲"The Spark",英国舞曲榜第6名单曲"Ten Feet Tall" 荷兰唱片制作人及电子House舞曲艺人Afrojack第二张录音室专辑《Forget the World》于2014年5月19日发行。 2011-2013年连续3年名列DJ Mag杂志年度百大DJ名单前10名,参与创作Beyoncé畅销曲"Run The World (Girls)",还有操盘制作Lady Gaga的"Marry The Night",Pitbull的"Give Me Everything"、Miley Cyrus的"Wrecking Ball"混音版的荷兰电音DJ Afrojack在2014年发行【Forget The World】,专辑窜升全美舞曲/电音专辑榜第2名,英国舞曲专辑榜第8名。 专辑融合浩室电音,前卫浩室,流行舞曲,欧洲电子舞曲与嘻哈,专辑中包括:获选为Bud Light 2014年超级碗广告曲,晋升英国舞曲榜第6名,全美夜店舞曲榜第8名的"Ten Feet Tall";音乐录影带在YouTube涌入超过2800万浏览人次的英国舞曲榜第5名单曲"The Spark";打造电影「速度与激情7」向保罗沃克致敬单曲"See You Again"的嘻哈歌手Wiz Khalifa助阵的"Too Wild";加州说唱天王Snoop Dogg相挺的电音嘻哈舞曲"Dynamite";16座格莱美奖喝采的英国摇滚巨星Sting跨刀的"Catch Tomorrow"。 专辑曲目: Ten Feet Tall (feat. Wrabel) Illuminate Born to Run (feat. Tyler Glenn) Freedom (feat. Jack McManus) The Spark (feat. Spree Wilson) Dynamite (feat. Snoop Dogg) Too Wild (feat. Wiz Khalifa & Devin Cruise) Three Strikes (feat. Jack McManus) Catch Tomorrow (feat. Sting) We'll Be Ok (feat. Wrabel) Mexico (feat. Shirazi) Keep Our Love Alive Faded As Your Friend (feat. Chris Brown) Do or Die (Afrojack vs. Thirty Seconds to Mars Remix) Sovereign Light Cafe (Afrojack vs. Keane Remix) Exact Audio Copy V1.3 from 2. September 2016 EAC 抓取日志文件从15. 十一月 2017, 10:12 Afrojack / Forget The World 使用驱动器:ASUS SDRW-08D2S-U Adapter: 1ID: 0 读取模式 : 可靠Secure 使用精确流 : 是 清空音频缓存 : 是 使用 C2 指示器 : 否 读取偏移校正: : 0 读取 Lead-In 和 Lead-Out : 否 用静音填充抓取中丢失偏移的采样 : 是 去除首尾静音块 : 否 在CRC 计算中使用了空样本 : 是 已用接口 : Win NT 及 2000 本地 Win32 接口 所用输出模式: : 内部 WAV 函数 样本格式 : 44.100 Hz; 16 Bit; 立体声 已抓取 CD 的 TOC 音轨 | 起始 | 长度 |起始扇区|结束扇区 -------------------------------------------- 1 |0:00.00 |3:49.11 | 0 |17185 2 |3:49.11 |4:37.41 |17186 |38001 3 |8:26.52 |4:53.27 |38002 |60003 4 | 13:20.04 |4:03.73 |60004 |78301 5 | 17:24.02 |4:00.67 |78302 |96368 6 | 21:24.69 |3:48.28 |96369 | 113496 7 | 25:13.22 |3:53.23 | 113497 | 130994 8 | 29:06.45 |4:56.05 | 130995 | 153199 9 | 34:02.50 |3:08.59 | 153200 | 167358 10 | 37:11.34 |5:19.51 | 167359 | 191334 11 | 42:31.10 |4:51.11 | 191335 | 213170 12 | 47:22.21 |4:13.00 | 213171 | 232145 13 | 51:35.21 |3:08.10 | 232146 | 246255 14 | 54:43.31 |4:52.35 | 246256 | 268190 15 | 59:35.66 |4:38.14 | 268191 | 289054 16 | 64:14.05 |4:56.00 | 289055 | 311254 范围状态及错误 已选择范围 文件名 C:\Users\磊\Desktop\Afrojack - Forget The World.wav 峰值电平 100.0 % 抓取速度 5.1 X 范围质量 100.0 % 复制 CRC 681C9254 复制成功 没有错误发生 状态报告结尾 ==== 记录校验日志 0A37CDE6DC737F3AFAB76FFBB78916F67340AB0C86934AAF6DA2CAC5185AC72D ==== 试听曲目:Ten Feet Tall (feat. Wrabel) 链接:包年会员可查看

Forget the World《Afrojack》[FLAC/MP3/无损]百度云网盘免费下载地址及提取码如下:

请登录后查阅

Afrojackmp3下载,Afrojackmp3百度云,Afrojackmp3网盘下载,Afrojackmp3免费下载地址由91f音乐网www.91f.net搜集分享,如果你觉得有侵犯你的权益,授权事宜、对本内容有异议或投诉,敬请联系网站管理员,我们将尽快回复您,谢谢合作!

Forget the World
《大笨(WAV母带专辑合集)[Hi》[FLAC/MP3/无损]百度云网盘免费下载地址 失眠《《失眠》》[FLAC/MP3/无损]百度云网盘免费下载地址

游客 回复需填写必要信息