首页粤语《Maroon 5》[FLAC/MP3/无损]百度云网盘免费下载地址

《Maroon 5》[FLAC/MP3/无损]百度云网盘免费下载地址

时间2022-12-04 06:04:00分类粤语浏览75

《Maroon 5》[FLAC/MP3/无损]百度云网盘免费下载地址在文尾有提供,你可以直接点击跳到文尾查看并下载。

《Maroon 5》[FLAC/MP3/无损]百度云网盘免费下载地址

微信截图_20221203222541.jpg (133.09 KB, 下载次数: 0) 下载附件 昨天22:26 上传 专辑介绍: ★惊创全球1700万张销售、连创白金专辑纪录、3座葛莱美奖荣耀的摇滚型男天团 ★首发单曲"Payphone"全球10国iTunes排行冠军 荣登iTunes史上最畅销乐团 如果那是一首好歌,它就是一首好歌!想通这个做出好音乐的单纯道理,缔造全球1700万张专辑销售、坐拥3座葛莱美奖的超级乐团Maroon 5/魔力红第一次敞开心胸,决定製作一张适合电台播放的流行音乐专辑,于是,【Overexposed】诞生了。冒险尝试的结果很甜美,首支单曲"Payphone"博得好头采,空降全球10国iTunes冠军,也是他们成军以来首次登上英国金榜冠军大作,同时更以单週超过49万张销售空降全美数位下载销售单曲榜冠军,刷新全美乐团单週数位付费销售最高纪录! 型男主唱Adam Levine表示,专辑名称【Overexposed】有那麽一点开自己玩笑的意味,尤其当Adam出任全美当红歌唱选秀节目「The Voice/音乐达人PK讚」评审,2011年与克莉丝汀合作畅快单曲"Moves Like Jagger"又勇夺18国冠军、全球付费下载次数更飙破1千万次,这一切都让Adam不免浮现「我们真的无所不在过度曝光了!」的感觉,他笑说:「我们要抢在别人议论纷纷之前先发制人,因为这一天迟早会到来。」 魔力红首度与乐团之外的词曲创作者合作"Moves Like Jagger"大受欢迎,刺激他们再度开启合作大门的想法,于是,乐团邀请Max Martin(*布兰妮)担任专辑的执行製作,同时延揽Benny Blanco(*凯蒂佩芮)以及2010年巡迴演唱的伙伴—OneRepublic乐团主唱/创作高手Ryan Tedder(*碧昂丝)一起加入彩绘流行乐的创意行列。开场曲"One More Night"送上电子雷鬼乐拼盘;首发单曲"Payphone"找来以冠军曲"Black And Yellow"窜红的饶舌新秀Wiz Khalifa帮腔,同时还在副歌中将开场的甜蜜词意来个呛辣大逆转;魔力红用放克乐热炒一首流行抒情小品"Beautiful Goodbye";另外曲风结合迪斯可与摇滚乐的"Doin' Dirt",则是吉他手James Valentine深受白人灵魂摇滚乐团Hall & Oates启发之作;还有在洛杉矶豪华录音室Conway Studios大厅用笔电与迷你键盘发想完成的作品"Fortune Teller"。 【Overexposed】是历年专辑中最像也是最不像魔力红的作品,因为当中有他们一路走来所留下的精彩轨迹,同时又蕴含了前所未有的全新创意。魔力红想在【Overexposed】的音乐裡传达一个重要的讯息:无论如何都要勇于尝试,只有勇敢离开安逸舒服的空间,才有机会拥抱更辽阔宽广的大世界。 专辑曲目: 1. "One More Night" 2. "Payphone" (featuring Wiz Khalifa) 3. "Daylight" 4. "Lucky Strike" 5. "The Man Who Never Lied" 6. "Love Somebody" 7. "Ladykiller" 8. "Fortune Teller" 9. "Sad" 10. "Tickets" 11. "Doin' Dirt" 12. "Beautiful Goodbye" Exact Audio Copy V1.3 from 2. September 2016 EAC 抓取日志文件从2. 三月 2018, 9:25 Maroon 5 / Overexposed 使用驱动器:ASUS SDRW-08D2S-U Adapter: 1ID: 0 读取模式 : 可靠Secure 使用精确流 : 是 清空音频缓存 : 是 使用 C2 指示器 : 否 读取偏移校正: : 0 读取 Lead-In 和 Lead-Out : 否 用静音填充抓取中丢失偏移的采样 : 是 去除首尾静音块 : 否 在CRC 计算中使用了空样本 : 是 已用接口 : Win NT 及 2000 本地 Win32 接口 所用输出模式: : 内部 WAV 函数 样本格式 : 44.100 Hz; 16 Bit; 立体声 已抓取 CD 的 TOC 音轨 | 起始 | 长度 |起始扇区|结束扇区 -------------------------------------------- 1 |0:00.00 |3:39.35 | 0 |16459 2 |3:39.35 |3:51.48 |16460 |33832 3 |7:31.08 |3:45.64 |33833 |50771 4 | 11:16.72 |3:05.21 |50772 |64667 5 | 14:22.18 |3:25.15 |64668 |80057 6 | 17:47.33 |3:49.62 |80058 |97294 7 | 21:37.20 |2:43.73 |97295 | 109592 8 | 24:21.18 |3:24.08 | 109593 | 124900 9 | 27:45.26 |3:14.36 | 124901 | 139486 10 | 30:59.62 |3:29.01 | 139487 | 155162 11 | 34:28.63 |3:31.32 | 155163 | 171019 12 | 38:00.20 |4:15.21 | 171020 | 190165 范围状态及错误 已选择范围 文件名 C:\Users\磊.000\Desktop\Maroon 5 - Overexposed.wav 峰值电平 99.8 % 抓取速度 4.6 X 范围质量 100.0 % 复制 CRC 00559203 复制成功 没有错误发生 状态报告结尾 ==== 记录校验日志 416606A0AE8E3E956187A6C4822160B4A65EEB8569A18312F318826E7B8F6D63 ==== 试听曲目:Payphone 链接:包年会员可查看

《Maroon 5》[FLAC/MP3/无损]百度云网盘免费下载地址及提取码如下:

请登录后查阅

Maroon 5mp3下载,Maroon 5mp3百度云,Maroon 5mp3网盘下载,Maroon 5mp3免费下载地址由91f音乐网www.91f.net搜集分享,如果你觉得有侵犯你的权益,授权事宜、对本内容有异议或投诉,敬请联系网站管理员,我们将尽快回复您,谢谢合作!

《大笨(WAV母带专辑合集)[Hi》[FLAC/MP3/无损]百度云网盘免费下载地址 失眠《《失眠》》[FLAC/MP3/无损]百度云网盘免费下载地址

游客 回复需填写必要信息