首页粤语纽约时报《Charlie Puth》[FLAC/MP3/无损]百度云网盘免费下载地址

纽约时报《Charlie Puth》[FLAC/MP3/无损]百度云网盘免费下载地址

时间2022-12-04 06:04:00分类粤语浏览74

纽约时报《Charlie Puth》[FLAC/MP3/无损]百度云网盘免费下载地址在文尾有提供,你可以直接点击跳到文尾查看并下载。

纽约时报《Charlie Puth》[FLAC/MP3/无损]百度云网盘免费下载地址

微信截图_20221203231432.jpg (65.09 KB, 下载次数: 0) 下载附件 昨天23:15 上传 专辑介绍: 格莱美奖多次提名的歌手/作曲者/制作人 Charlie Puth第二张专辑VoiceNotes5月11日正式发行 携手格莱美提名的R&B女神Kehlani创作最新单曲Done For Me 收录于即将发行的专辑VoiceNotes中 Done For Me是继大热单曲How Long 和双白金销量单曲Attention之后的全新力作 流行巨星CP之前献声3月24日的洛杉矶反枪械暴力“生命大游行” 并创作与James Taylor合作曲Change The VoiceNotes巡演将于6月11日开启 巡演站包括全球知名的纽约无线电城音乐厅洛杉矶希腊剧场 多次获得格莱美奖提名的歌手、作曲人兼制作人查理·普斯发布了他的最新单曲Done For Me(feat.Kehlani),目前在各大音乐平台均已上架。联手格莱美提名的R&B才女、大西洋唱片同门师妹Kehlani的DoneFor Me,是普斯备受期待的第二张专辑Voicenotes中的最新单曲,这张专辑将于5月11日发行,预售现在已开启。 由普斯独立制作完成,Voicenotes已经接连推出了两首热单,双白金销量的Attention和成绩惊艳的续篇How Long。Attention标志着普斯的第五首RIAA认证白金单曲,第三首美国公告牌单曲榜前10(最高位第5名),第二首Hot AC 电台独唱冠军单曲,第一首Hot AC 电台独唱冠军单曲。除了持续的商业成功外,普斯的音乐更受到《纽约时报》的好评,Attention被其评为2017年度最佳歌曲之一。How Long也打入了Hot AC 电台和Top 40电台的前五名,更被《名利场》评为“17首2017年最佳流行歌曲”之一。普斯最近在2018年iHeartRadio音乐颁奖礼上表演How Long引起轰动,台下观众集体合唱将气氛推入高潮。不仅被提名年度最佳男艺人,普斯更是iHeartRadio音乐巨星奖的得主之一,旨在表彰Attention的电台播放次数突破10亿!同时,Attention和How Long的音乐录像带仅在YouTube上的观看总数就已超过10亿! 在3月24日,Puth在洛杉矶“生命大游行”带来现场表演,声援同一天在华盛顿特区举行的全国“生命大游行”。“生命大游行”是一场学生主导的运动,要求终止大规模学校枪击事件的爆发,并优先考虑全国青少年的生活。学生组织者和游行者将聚集在洛杉矶市中心,官方合作伙伴“女性大游行”基金会、城镇枪支安全组织,和市长汤姆布拉德利100周年纪念组织,以团结在佛罗里达州,华盛顿特区及全国范围内的学生,要求学校和社区停止枪支暴力。 “生命大游行”运动的集体发声将在全国各地举行的近500场声援游行活动中听到。 由Live Nation制作的The Voicenotes巡演将于7月11日正式在多伦多的百威露天剧场开启,并在夏天巡回美洲各地。 这是普斯迄今为止最大的北美个人巡演,亮点包括登上世界著名的纽约无线电城音乐厅(7月16日)和洛杉矶的希腊剧院(8月14日)的舞台。多白金销量的流行歌手海莉·史坦菲尔德将作为特别嘉宾助阵每站演唱会。 Voicenotes是普斯RIAA白金认证的首张专辑Nine Track Mind的强势续篇。普斯2016年的出道专辑Nine Track Mind,在公告牌最佳当下专辑排行榜上名列第5,并收录了RIAA 双白金认证的前40名热单,“One Call Away”和“Marvin Gaye(ft.Meghan Trainor)”,以及3白金认证的“We Don’t Talk Anymore (featuring Selena Gomez)”。这张专辑在全球引起极大轰动和追捧,在28个国家的iTunes销售榜登顶。 作为Wiz Khalifa的“See You Again”的词曲作者,制作人和主唱,普斯在《速度与激情7》中向保罗沃克致敬,这首歌作为十年来最流行单曲之一正式载入历史,在公告牌单曲榜上占据冠军宝座长达惊人的12周,并以35亿次的观看次数成为YouTube上“第二受欢迎的音乐录像带”。这首歌赢得了两项公告牌音乐奖,评论选择奖的“最佳歌曲奖”,一项好莱坞电影奖,两项青少年选择奖,金球奖的最佳原创歌曲的提名,和三项格莱美奖提名,其中包括著名的的“年度歌曲奖” 专辑曲目: 1. The Way I Am 2. Attention 3. LA Girls 4. How Long 5. Done For Me 6. Patient 7. If You Leave Me Now 8. BOY 9. Slow It Down 10. Change 11. Somebody Told Me 12. Empty Cups 13. Through It All Exact Audio Copy V1.3 from 2. September 2016 EAC 抓取日志文件从17. 九月 2018, 9:21 Charlie Puth / Voicenotes 使用驱动器:ASUS SDRW-08D2S-U Adapter: 1ID: 0 读取模式 : 可靠Secure 使用精确流 : 是 清空音频缓存 : 是 使用 C2 指示器 : 否 读取偏移校正: : 0 读取 Lead-In 和 Lead-Out : 否 用静音填充抓取中丢失偏移的采样 : 是 去除首尾静音块 : 否 在CRC 计算中使用了空样本 : 是 已用接口 : Win NT 及 2000 本地 Win32 接口 所用输出模式: : 内部 WAV 函数 样本格式 : 44.100 Hz; 16 Bit; 立体声 已抓取 CD 的 TOC 音轨 | 起始 | 长度 |起始扇区|结束扇区 -------------------------------------------- 1 |0:00.00 |3:06.06 | 0 |13955 2 |3:06.06 |3:28.59 |13956 |29614 3 |6:34.65 |3:17.08 |29615 |44397 4 |9:51.73 |3:20.64 |44398 |59461 5 | 13:12.62 |3:00.37 |59462 |72998 6 | 16:13.24 |3:10.40 |72999 |87288 7 | 19:23.64 |4:03.12 |87289 | 105525 8 | 23:27.01 |4:23.31 | 105526 | 125281 9 | 27:50.32 |3:10.04 | 125282 | 139535 10 | 31:00.36 |3:37.42 | 139536 | 155852 11 | 34:38.03 |3:36.04 | 155853 | 172056 12 | 38:14.07 |2:50.71 | 172057 | 184877 13 | 41:05.03 |3:26.34 | 184878 | 200361 范围状态及错误 已选择范围 文件名 C:\Users\Administrator\Desktop\Charlie Puth - Voicenotes.wav 峰值电平 100.0 % 抓取速度 4.0 X 范围质量 99.9 % 复制 CRC A0EDFF46 复制成功 没有错误发生 状态报告结尾 ==== 记录校验日志 EB2E765DCFBD93449145533D3E13B7791B90FEAEDC753DE8F863A4DDAFF69DA7 ==== 试听曲目:The Way I Am 链接:包年会员可查看

纽约时报《Charlie Puth》[FLAC/MP3/无损]百度云网盘免费下载地址及提取码如下:

请登录后查阅

Charlie Puthmp3下载,Charlie Puthmp3百度云,Charlie Puthmp3网盘下载,Charlie Puthmp3免费下载地址由91f音乐网www.91f.net搜集分享,如果你觉得有侵犯你的权益,授权事宜、对本内容有异议或投诉,敬请联系网站管理员,我们将尽快回复您,谢谢合作!

纽约时报
《大笨(WAV母带专辑合集)[Hi》[FLAC/MP3/无损]百度云网盘免费下载地址 失眠《《失眠》》[FLAC/MP3/无损]百度云网盘免费下载地址

游客 回复需填写必要信息