首页粤语Animal《Ke$ha》[FLAC/MP3/无损]百度云网盘免费下载地址

Animal《Ke$ha》[FLAC/MP3/无损]百度云网盘免费下载地址

时间2022-11-23 22:03:00分类粤语浏览9

Animal《Ke$ha》[FLAC/MP3/无损]百度云网盘免费下载地址在文尾有提供,你可以直接点击跳到文尾查看并下载。

Animal《Ke$ha》[FLAC/MP3/无损]百度云网盘免费下载地址

微信截图_20221123203731.jpg (254.75 KB, 下载次数: 0) 下载附件 1小时前 上传 微信截图_20221123203740.jpg (198.96 KB, 下载次数: 0) 下载附件 1小时前 上传 专辑介绍: Ke$ha首张专辑《Animal》正式发行!现今乐坛显然是电子乐大行其道的地方,Lady Gaga大红大紫,众多大牌歌手乐队都在专辑中大量使用电子元素,电子乐新星的势力也同样不可小窥——22岁的Ke$ha凭借与Flo Rida合作的冠军单曲《Right Round》被人们熟知后,她的首支单曲《TiK ToK》在澳大利亚登上了排行榜冠军。   Tik Tok的制作人之一是Dr. Luke (Lukasz Gottwald),他正是Katy Perry ” I Kissed a Girl “的背后推手,也操刀过Avril Lavigne, Britney Spears, Kelly Clarkson等人的专辑,很辉煌,无法一一叙述就是了。另外,参与Tik Tok创作的除了Dr. Luke和Ke$ha本人,还有Benny Blanco,他相当年轻(1988年生),比Ke$ha还小一岁,不过从跟着Dr. Luke开始,他已经参与过Katy Perry、Britney Spears、Flo Rida、Lady Sovereign等人的专辑制作。   Ke$ha本名Kesha Sebert ,出生于美国洛杉矶,后来大概在她4岁大时,一家人搬到田纳西州的Nashville,她在那里度过童年和青少年时光,17岁决定往音乐发展后,她自己一个人才又搬回到洛杉矶。 Ke$ha来自单亲家庭,妈妈Pebe Sebert在’70年代末也是创作歌手,小Kesha还是个婴儿时,妈妈在舞台上表演,她就被放在后台或吉他盒里,妈妈进录音室,她也被带着去,她长大后会当艺人,其实从小就有耳濡目染,母亲也常称赞她有很好的声音,鼓励她唱歌。 但是你一开始不会想到的是,因为母亲的关系,Kesha Sebert从小是在乡村长大的,她认为乡村歌曲对她的最大影响是强调歌曲的故事性,每首歌都有着故事,而Ke$ha喜欢透过音乐说她的故事。 专辑曲目: Your Love Is My Drug TiK ToK Take It Off Kiss N Tell Stephen Blah Blah Blah featuring 3OH!3 Hungover Party At A Rich Dude's House Backstabber Blind Dinosaur Dancing With Tears In My Eyes Boots & Boys Animal Exact Audio Copy V1.3 from 2. September 2016 EAC 抓取日志文件从5. 四月 2017, 18:43 Ke$ha / Animal 使用驱动器:Optiarc DVD RW AD-7560A Adapter: 1ID: 0 读取模式 : 可靠Secure 使用精确流 : 是 清空音频缓存 : 是 使用 C2 指示器 : 否 读取偏移校正: : 6 读取 Lead-In 和 Lead-Out : 否 用静音填充抓取中丢失偏移的采样 : 是 去除首尾静音块 : 否 在CRC 计算中使用了空样本 : 是 已用接口 : Win NT 及 2000 本地 Win32 接口 所用输出模式: : 内部 WAV 函数 样本格式 : 44.100 Hz; 16 Bit; 立体声 已抓取 CD 的 TOC 音轨 | 起始 | 长度 |起始扇区|结束扇区 -------------------------------------------- 1 |0:00.00 |3:09.07 | 0 |14181 2 |3:09.07 |3:21.55 |14182 |29311 3 |6:30.62 |3:37.15 |29312 |45601 4 | 10:08.02 |3:29.50 |45602 |61326 5 | 13:37.52 |3:34.31 |61327 |77407 6 | 17:12.08 |2:54.04 |77408 |90461 7 | 20:06.12 |3:54.08 |90462 | 108019 8 | 24:00.20 |2:57.47 | 108020 | 121341 9 | 26:57.67 |3:08.65 | 121342 | 135506 10 | 30:06.57 |3:19.10 | 135507 | 150441 11 | 33:25.67 |2:57.16 | 150442 | 163732 12 | 36:23.08 |3:31.19 | 163733 | 179576 13 | 39:54.27 |2:58.28 | 179577 | 192954 14 | 42:52.55 |3:57.26 | 192955 | 210755 范围状态及错误 已选择范围 文件名 C:\Users\磊\Desktop\Ke$ha - Animal.wav 峰值电平 100.0 % 抓取速度 4.3 X 范围质量 99.9 % 复制 CRC C2ACC28A 复制成功 没有错误发生 状态报告结尾 ---- CUETools DB Plugin V2.1.6 试听曲目:TiK ToK 链接:包年会员可查看

Animal《Ke$ha》[FLAC/MP3/无损]百度云网盘免费下载地址及提取码如下:

请登录后查阅

Ke$hamp3下载,Ke$hamp3百度云,Ke$hamp3网盘下载,Ke$hamp3免费下载地址由91f音乐网www.91f.net搜集分享,如果你觉得有侵犯你的权益,授权事宜、对本内容有异议或投诉,敬请联系网站管理员,我们将尽快回复您,谢谢合作!

Animal
《孙燕姿》[FLAC/MP3/无损]百度云网盘免费下载地址 心中的日月《王力宏》[FLAC/MP3/无损]百度云网盘免费下载地址

游客 回复需填写必要信息