首页日语生如夏花《朴树》[FLAC/MP3/无损]百度云网盘免费下载地址

生如夏花《朴树》[FLAC/MP3/无损]百度云网盘免费下载地址

时间2022-11-23 22:03:00分类日语浏览14

生如夏花《朴树》[FLAC/MP3/无损]百度云网盘免费下载地址在文尾有提供,你可以直接点击跳到文尾查看并下载。

生如夏花《朴树》[FLAC/MP3/无损]百度云网盘免费下载地址

微信截图_20221123195411.jpg (220.73 KB, 下载次数: 0) 下载附件 2小时前 上传 微信截图_20221123195420.jpg (93.27 KB, 下载次数: 0) 下载附件 2小时前 上传 专辑介绍: 2003年11月28日,朴树的新专辑《生如夏花》打磨多时后终于在全国盛开。 朴树在音乐中的挣扎是骇人的,朴树用一种近乎苦行僧的迷狂,试图渐抵印度大师泰戈尔“使之生如夏花之绚烂,死若秋叶之静美”的纯然之境。专辑中的词曲全由朴树一手打造,他的内在绝对充盈,追求那种近乎缥缈和绝望的唯美,他的爆发力十分出色,他的控制力也相当惊人,将这两种力量和谐统一后的《生如夏花》自然无比惊艳。 专辑曲目: 1. 傻子才悲伤 2. 我爱你,再见 3. 傲慢的上校 4. 来不及 5. Colorful days 6. 今夜的滋味 7. 苏珊的舞鞋 8. 生如夏花 9. 且听风吟 10. La Perte 11. 她在睡梦中 Exact Audio Copy V1.5 from 20. February 2020 EAC 抓取日志文件从22. 十一月 2020, 14:42 朴树 / 生如夏花 使用驱动器:ASUS SDRW-08D2S-U Adapter: 1ID: 0 读取模式 : 可靠Secure 使用精确流 : 是 清空音频缓存 : 是 使用 C2 指示器 : 否 读取偏移校正: : 0 读取 Lead-In 和 Lead-Out : 否 用静音填充抓取中丢失偏移的采样 : 是 去除首尾静音块 : 否 在CRC 计算中使用了空样本 : 是 已用接口 : Win NT 及 2000 本地 Win32 接口 所用输出模式: : 内部 WAV 函数 样本格式 : 44.100 Hz; 16 Bit; 立体声 已抓取 CD 的 TOC 音轨 | 起始 | 长度 |起始扇区|结束扇区 -------------------------------------------- 1 |0:00.00 |3:59.53 | 0 |17977 2 |3:59.53 |4:52.23 |17978 |39900 3 |8:52.01 |4:52.32 |39901 |61832 4 | 13:44.33 |5:46.14 |61833 |87796 5 | 19:30.47 |3:55.20 |87797 | 105441 6 | 23:25.67 |4:09.09 | 105442 | 124125 7 | 27:35.01 |5:05.27 | 124126 | 147027 8 | 32:40.28 |4:54.49 | 147028 | 169126 9 | 37:35.02 |3:43.41 | 169127 | 185892 10 | 41:18.43 |4:30.19 | 185893 | 206161 11 | 45:48.62 |3:32.27 | 206162 | 222088 范围状态及错误 已选择范围 文件名 C:\Users\888\Desktop\朴树 - 生如夏花.wav 峰值电平 100.0 % 抓取速度 4.0 X 范围质量 99.9 % 复制 CRC 9D60B24A 复制成功 没有错误发生 状态报告结尾 ==== 记录校验日志 2A1A00922BC7512BB764982FB1752D26F6BC5198CAB41A2ABC961E457D4EA816 ==== 试听曲目:傻子才悲伤 链接:包年会员可查看

生如夏花《朴树》[FLAC/MP3/无损]百度云网盘免费下载地址及提取码如下:

请登录后查阅

朴树mp3下载,朴树mp3百度云,朴树mp3网盘下载,朴树mp3免费下载地址由91f音乐网www.91f.net搜集分享,如果你觉得有侵犯你的权益,授权事宜、对本内容有异议或投诉,敬请联系网站管理员,我们将尽快回复您,谢谢合作!

生如夏花
《孙燕姿》[FLAC/MP3/无损]百度云网盘免费下载地址 心中的日月《王力宏》[FLAC/MP3/无损]百度云网盘免费下载地址

游客 回复需填写必要信息