首页韩语X《Ed Sheeran》[FLAC/MP3/无损]百度云网盘免费下载地址

X《Ed Sheeran》[FLAC/MP3/无损]百度云网盘免费下载地址

时间2022-12-04 06:04:00分类韩语浏览77

X《Ed Sheeran》[FLAC/MP3/无损]百度云网盘免费下载地址在文尾有提供,你可以直接点击跳到文尾查看并下载。

X《Ed Sheeran》[FLAC/MP3/无损]百度云网盘免费下载地址

微信截图_20221203220331.jpg (95.15 KB, 下载次数: 0) 下载附件 昨天22:03 上传 微信截图_20221203220319.jpg (88.34 KB, 下载次数: 0) 下载附件 昨天22:04 上传 专辑介绍: * 和鬼才菲董共同打造的首支欢乐单曲「Sing」,不仅已荣登全英金榜冠军,并以首週销量便名列全英年度畅销单曲Top5! * 豪华精装版独家加值收录5首歌,包括分别为卖座电影【霍比特人2:史矛革荒漠】、【星运里的错】量身打造的动人主题曲「I See Fire」和「All Of The Stars」! 1991年出生的英国民谣流行唱作人Ed Sheeran于2014年6月发行专辑《X》。这是他个人第二张录音室专辑,首发单曲《Sing》由Pharrell Williams制作并于4月7日上架发行。豪华版专辑里收录了《霍比特人2:史矛革荒漠》主题曲《I See Fire》。 处在这匆忙的钢筋都市中,喧嚣早已掩盖听觉感官,但是,庆幸有Ed Sheeran尚留一丝暖意,从容自若地牵动你我内心感动因子,在灵魂深处烙下深刻印记。一方面诉说纠结的故事,让残酷的无奈点滴侵蚀,一方面拾起爱恋碎片,拼起潜藏回忆中的感同身受。一举囊括全英音乐奖『最佳男歌手』+『最佳新人』双料大奖殊荣,入围葛莱美『最佳新人』的Ed Sheeran,从一头红髮与落腮鬍中,反透腼腆大男孩般的笑容,唱起歌时的深情,轻易瓦解听者的心防! 除了清新民谣风之外,美派嘻哈/饶舌/灵魂,甚至英伦电舞,都是Ed无国界理念创作下的素材。2011年发行首张专辑“+”便登记英国冠军狂销6白金,攻陷美国第5名、获颁金唱片认证,并缔造全球逾4百万张专辑销售。其中描述毒品议题的「The A Team」,双料提名全英和葛莱美音乐奖『年度单曲』表扬,连续11週停留全英单曲榜Top 10,成为2011年最畅销的首发单曲!睽违3年之久的“x”,Ed早已写出百馀首作品,请到时代杂志评选「全球百大影响力人物」传奇大师Rick Rubin(AC/DC)筛选并参与部分製作,连同火速窜红的Benny Blanco(Maroon 5)一起改造,除了稳固原本架构于Acoustic的基础,同时披上迷人的Neo-Soul Funk绚烂彩衣,外加鬼才菲董Pharrell Williams(Daft Punk)协助,企图无限加值出音乐的丰富性。此外,首辑中的主推手Jake Gosling(Lady Gaga)二度站台+Snow Patrol主唱Gary Lightbody+英伦舞团Rudimental…等,全明星阵容通力掌盘! 安静沉稳的「One」,交付空心吉他的驱动,搭上Ed深情的真假音配置,记载对前女友的回忆;在一次赌城夜晚狂欢后写下的「Sing」,受到Justin Timberlake音乐启发,和菲董共同打造出手舞足蹈之作,已荣登全英金榜冠军,并以首週销量便名列全英年度畅销单曲Top5;几乎用说唱方式演绎背叛曲目「Don’t」,已拿下全球26国iTunes冠军;无法爱到所爱的碎心之歌「Nina」,保藏Hip-Hop+Funky Soul元素,令人耳朵为之一开的捕捉多处精采桥段;刻划落寞神伤的「Tenerife Sea」,藉曲引述参与2013年葛莱美颁奖典礼感觉遭到冷落的心境;Ed最爱的「Thinking Out Loud」,呈现一支Soulful迷人的情歌,蓝调吉他弹奏出顺畅耐听旋律,散尽关于现任女友的浪漫;琴韵飞扬包围催泪的「Afire Love」,送给因病甫离世的祖父,在葬礼时完成的感伤小品,同样登上全球26国iTunes冠军! 豪华精装版加值收录5首歌,包括分别为卖座电影【霍比特人2:史矛革荒漠】、【星运里的错】量身打造的动人主题曲「I See Fire」和「All Of The Stars」,还有Ed秀上快嘴饶舌技能,没有任何嘻哈节拍,仅靠民谣吉他辅佐、令人拍案叫绝的「Take It Back」。 藉由“x”专辑,Ed要以他的创作与歌声陪你走过人生景緻、体验喜怒哀乐的箇中滋味,真挚动人地赋与你勇气继续跨步前行! 专辑曲目: 1. One 2. I'm A Mess 3. Sing 4. Don't 5. Nina 6. Photograph 7. Bloodstream 8. Tenerife Sea 9. Runaway 10. The Man 11. Thinking Out Loud 12. Afire Love 13. Take It Back 14. Shirtsleeves 15. Even My Dad Does Sometimes 16. I See Fire 17. All Of the Stars Exact Audio Copy V1.3 from 2. September 2016 EAC 抓取日志文件从28. 二月 2018, 17:01 Ed Sheeran / X (Deluxe Edition) 使用驱动器:ASUS SDRW-08D2S-U Adapter: 1ID: 0 读取模式 : 可靠Secure 使用精确流 : 是 清空音频缓存 : 是 使用 C2 指示器 : 否 读取偏移校正: : 0 读取 Lead-In 和 Lead-Out : 否 用静音填充抓取中丢失偏移的采样 : 是 去除首尾静音块 : 否 在CRC 计算中使用了空样本 : 是 已用接口 : Win NT 及 2000 本地 Win32 接口 所用输出模式: : 内部 WAV 函数 样本格式 : 44.100 Hz; 16 Bit; 立体声 已抓取 CD 的 TOC 音轨 | 起始 | 长度 |起始扇区|结束扇区 -------------------------------------------- 1 |0:00.00 |4:12.57 | 0 |18956 2 |4:12.57 |4:04.43 |18957 |37299 3 |8:17.25 |3:55.33 |37300 |54957 4 | 12:12.58 |3:39.63 |54958 |71445 5 | 15:52.46 |3:45.40 |71446 |88360 6 | 19:38.11 |4:18.74 |88361 | 107784 7 | 23:57.10 |5:00.19 | 107785 | 130303 8 | 28:57.29 |4:01.26 | 130304 | 148404 9 | 32:58.55 |3:25.10 | 148405 | 163789 10 | 36:23.65 |4:10.32 | 163790 | 182571 11 | 40:34.22 |4:41.42 | 182572 | 203688 12 | 45:15.64 |5:14.21 | 203689 | 227259 13 | 50:30.10 |3:28.30 | 227260 | 242889 14 | 53:58.40 |3:10.17 | 242890 | 257156 15 | 57:08.57 |3:48.40 | 257157 | 274296 16 | 60:57.22 |4:58.14 | 274297 | 296660 17 | 65:55.36 |3:57.11 | 296661 | 314446 范围状态及错误 已选择范围 文件名 C:\Users\磊.000\Desktop\Ed Sheeran - X (Deluxe Edition).wav 峰值电平 99.9 % 抓取速度 4.7 X 范围质量 100.0 % 复制 CRC FF7F8B6E 复制成功 没有错误发生 状态报告结尾 ==== 记录校验日志 DD3E1F49D8E2A4CD1024D8F1D5CDBE8273090C82C0D0D52645AB0B18D0D710E8 ==== 试听曲目:Photograph 链接:包年会员可查看

X《Ed Sheeran》[FLAC/MP3/无损]百度云网盘免费下载地址及提取码如下:

请登录后查阅

Ed Sheeranmp3下载,Ed Sheeranmp3百度云,Ed Sheeranmp3网盘下载,Ed Sheeranmp3免费下载地址由91f音乐网www.91f.net搜集分享,如果你觉得有侵犯你的权益,授权事宜、对本内容有异议或投诉,敬请联系网站管理员,我们将尽快回复您,谢谢合作!

X
《大笨(WAV母带专辑合集)[Hi》[FLAC/MP3/无损]百度云网盘免费下载地址 失眠《《失眠》》[FLAC/MP3/无损]百度云网盘免费下载地址

游客 回复需填写必要信息