首页韩语Chromatica《Lady Gaga》[FLAC/MP3/无损]百度云网盘免费下载地址

Chromatica《Lady Gaga》[FLAC/MP3/无损]百度云网盘免费下载地址

时间2022-12-04 06:04:00分类韩语浏览87

Chromatica《Lady Gaga》[FLAC/MP3/无损]百度云网盘免费下载地址在文尾有提供,你可以直接点击跳到文尾查看并下载。

Chromatica《Lady Gaga》[FLAC/MP3/无损]百度云网盘免费下载地址

微信截图_20221203234513.jpg (116.63 KB, 下载次数: 0) 下载附件 昨天23:46 上传 专辑介绍: ★全球流行&舞曲唯一天后 LADY GAGA睽违4年全新专辑【神彩】 ★有请新生代天后Ariana Grande、韩国当红女团BLACKPINK,传奇歌手Elton John共同献唱 ★收录破亿串流年度神曲“Stupid Love”、Ariana Grande跨刀力作“Rain On Me”等全新单曲 乐坛流行天后Lady Gaga倍受瞩目的第六张录音室专辑《Chromatica》于2020年5月29日全球发行,A妹Ariana Grande, 韩国女团BLACKPINK, 英国传奇摇滚音乐人Elton John等献声加持热度!Axwell, BloodPop®, BURNS, Klahr, LIOHN, Madeon, Skrillex, Tchami等知名电子制作人参与制作,诚邀你畅游Chromatica神彩星球寻一场舞池狂欢。 《Chromatica》是美国流行天后Lady Gaga于2020年5月29日发行的第六张录音室专辑。普通版共收录16首歌曲,Target独占版/国际豪华版共收录19首歌曲,日本初回生产限定盘共收录20首歌曲。该专辑原定于2020年4月10日发行,受到2020年新型冠状病毒疫情影响推迟到5月29日发行。 专辑第一首正式单曲《Stupid Love》于2020年2月28日发行。第二首正式单曲《Rain On Me》于2020年5月22日发行。 每一个世代都需要一位能够引领潮流、颠覆世代的前卫人物作为指标,成为当代人们情感出口与追循目标;1960-70年代「David Bowie」雌雄莫辨的阴柔形象、80-90年代「Madonna」将女性主义提升到全球皆知;进入21世纪,全球乐坛最具指标性人物非「LADY GAGA」莫属,她不断在音乐、流行、艺术等领域带动风潮,跃升当代最重要的流行文化唯一巨星。2020年,LADY GAGA再次带著全新作品回到乐坛,以她最擅长的流行舞曲预备再创音乐新领域。 本名Stefani Joanne Angelina Germanotta的LADY GAGA,现年34岁,经历生涯5张专辑的累积,她在全球卖出了超过1亿3000万张唱片,拥有4张公告牌冠军专辑、4首告示牌冠军单曲,除此之外,还坐拥11座格莱美奖、1座奥斯卡奖、2座金球奖、3座全英音乐奖、13座MTV音乐大奖、14项吉尼斯世界纪录保持。而不只在流行音乐的领域红翻全球,2018年更与布莱德利库柏共演【一个巨星的诞生】,高超自然的演技,让人见识到她影歌双栖的超强实力,片中一曲“Shallow”更是在YouTube累积超过8亿次观看,荣登美国公告牌、英国金榜与世界数十国冠军宝座、全球超过千万张的销售惊人纪录。此时的LADY GAGA早已成为超越天后的存在,可说是21世纪之后,第一个十年的时代象徵,也是引领文化潮流的风云人物。距离上一张专辑【Joanne】发行已有4年之久,LADY GAGA公开预告,宣称她将回归大家所熟悉的舞曲风格,再度席捲全球,「我将我全副的心力、我感受到的痛苦、我从其他领域听来的趣事、那些想向世界倾诉的话,我全都把他们放入音乐之中,我要让这些音乐听起来充满活力且充满纯真」。带著这样丰沛的情感,交出全新专辑【神彩 Chromatica】。 【Chromatica】的专辑名称,其实就是LADY GAGA所试图呈现出来的一个虚幻世界,五彩缤纷、无拘无束,并且打破任何人类的想像,同时这也是她製作全新专辑的目的,她希望大家藉由她的音乐受到鼓舞,成为最真实的自己、活出最真实的人生。专辑请到格莱美提名超新兴音乐操盘手BloodPop(Justin Bieber、Madonna)、法国电子音乐鬼才Tchami(DJ Snake、AlunaGeorge)、瑞典百大DJ Axwell等人联手操刀,为LADY GAGA打造新时代的舞曲典范;开场的“Chromatica I”宣告著再次回归自己的绝对专属领域,预告著整张作品充满复古与未来风格兼具的奇特声响;首支主打单曲“Stupid Love”创下YouTube超过7600万次观看、Spotify突破1亿次串流,并且空降公告牌热门电子舞曲榜冠军,结合Dance-Pop与Electropop与的曲风,让众人感受到Lady Gaga最真实且最完美的一面;除此之外,专辑中破天荒与Ariana Grande合作的“Rain On Me”、韩国当红女团BLACKPINK跨国合作的“Sour Candy”、传奇歌手Elton John献唱的“Sine From Above”、风格奇幻诡谲别出心裁的“Enigma”等一首首精彩作品歌曲,全都让人立即沉醉在LADY GAGA的独特魅力之中。 从2016年年末开始,Lady Gaga为其主演的电影《A Star Is Born》创作及录制歌曲。BloodPop和Gaga本计划一起为原声带写歌但却没有头绪,不过《Stupid Love》却制作完成。2019年1月,Lady Gaga开始制作《Chromatica》。当五首歌完成后,Lady Gaga决定以此为基础制作一张浩室音乐风格的专辑。Lady Gaga创作该专辑的目的,是希望通过该专辑激励和她一样曾在困境中挣扎的人们,帮助他们学会接纳自己。 Lady Gaga在制作过程中经历了很多情绪起伏、百感交集,边哭泣边写了下许多词篇。《Rain On Me》由爱莉安娜·格兰德参与合作,然而Lady Gaga最初对于前者提出的合作是拒绝的,因为Lady Gaga担心自己的消极情绪,会对同样需要应对心灵创伤的爱莉安娜·格兰德造成不良影响。最终,Lady Gaga在爱莉安娜·格兰德的坚持下同意了合作。《Rain On Me》的创作灵感来源于两人的一次谈话,Lady Gaga从这段谈话中受到启发,创作了这首《Rain On Me》,同时也是为了疗愈自己的创伤。 在录音《Rain On Me》的过程中,Lady Gaga建议爱莉安娜·格兰德将所有关心唱歌完不完美的心思抛之脑后,只管唱。爱莉安娜·格兰德唱歌的时候,Lady Gaga在她的面前跳舞鼓励 。该专辑中的歌曲有很多个不同版本,因为Lady Gaga与制作人都希望它们完美,几乎没有人在乎谁有份参与,Lady Gaga与制作人的目标,是只要这些歌曲最后是可以献给全世界的,而且有意义、真实,完全是Lady Gaga的风格就可以了。Lady Gaga之所以将该专辑命名为“Chromatica”,则是因为她觉得音乐与所有的颜色都是靠音阶、色阶所创造的,而“Chromatica”正是色彩、音乐领域的数学符号,《Chromatica》有双重含义:指代半音阶和色差,而这两个含义Lady Gaga都爱。该专辑的名字首先由BloodPop提出,他在与Lady Gaga进行探讨的过程中,觉得它似乎与颜色有关,但是音乐也是由半音阶构成的,所以这就是所有的颜色和所有的声音,他们想表达的是包容性和生活,该专辑在弗兰克·扎帕的工作室录制。 在《Chromatica》专辑封面中,Lady Gaga所穿的黑色皮革紧身胸衣、臂膀盔甲和铆钉刺刀高跟鞋来自西班牙设计师Cecilio Castrillo的作品。左脚穿的施华洛世奇水晶串珠流苏獠牙高跟鞋由Gasoline Glamour为其量身打造,左手所佩戴的骨形长爪来自艺术家加里·费伊制造定制,右手指甲则源自日本美甲艺术家冈原美穗。而在《Chromatica》的宣传写真中,Lady Gaga所披的紫红色盔甲由设计师劳雷尔·德维特量身定制,机械爪依然来自加里·费伊制造的定制。 专辑曲目: 01. Chromatica I 02. Alice 03. Stupid Love 04. Rain On Me (with Ariana Grande) 05. Free Woman 06. Fun Tonight 07. Chromatica II 08. 911 09. Plastic Doll 10. Sour Candy (with Blackpink) 11. Enigma 12. Replay 13. Chromatica III 14. Sine From Above (with Elton John) 15. 1000 Doves 16. Babylon Target Exclusives: 17. Love Me Right 18. 1000 Doves (Piano Demo) 19. Stupid Love (Vitaclub Warehouse Mix) Exact Audio Copy V1.5 from 20. February 2020 EAC 抓取日志文件从11. 八月 2020, 14:22 Lady Gaga / Chromatica 使用驱动器:ASUS SDRW-08D2S-U Adapter: 1ID: 0 读取模式 : 可靠Secure 使用精确流 : 是 清空音频缓存 : 是 使用 C2 指示器 : 否 读取偏移校正: : 0 读取 Lead-In 和 Lead-Out : 否 用静音填充抓取中丢失偏移的采样 : 是 去除首尾静音块 : 否 在CRC 计算中使用了空样本 : 是 已用接口 : Win NT 及 2000 本地 Win32 接口 所用输出模式: : 内部 WAV 函数 样本格式 : 44.100 Hz; 16 Bit; 立体声 已抓取 CD 的 TOC 音轨 | 起始 | 长度 |起始扇区|结束扇区 -------------------------------------------- 1 |0:00.00 |1:00.30 | 0 | 4529 2 |1:00.30 |2:57.45 | 4530 |17849 3 |3:58.00 |3:13.40 |17850 |32364 4 |7:11.40 |3:02.15 |32365 |46029 5 | 10:13.55 |3:11.35 |46030 |60389 6 | 13:25.15 |2:53.32 |60390 |73396 7 | 16:18.47 |0:41.65 |73397 |76536 8 | 17:00.37 |2:52.10 |76537 |89446 9 | 19:52.47 |3:41.50 |89447 | 106071 10 | 23:34.22 |2:37.53 | 106072 | 117899 11 | 26:12.00 |2:59.57 | 117900 | 131381 12 | 29:11.57 |3:06.49 | 131382 | 145380 13 | 32:18.31 |0:27.50 | 145381 | 147455 14 | 32:46.06 |4:04.66 | 147456 | 165821 15 | 36:50.72 |3:35.36 | 165822 | 181982 16 | 40:26.33 |2:41.54 | 181983 | 194111 17 | 43:08.12 |2:50.62 | 194112 | 206923 18 | 45:58.74 |2:48.58 | 206924 | 219581 19 | 48:47.57 |3:40.54 | 219582 | 236135 范围状态及错误 已选择范围 文件名 C:\Users\888\Desktop\Lady Gaga - Chromatica.wav 峰值电平 100.0 % 抓取速度 4.5 X 范围质量 100.0 % 复制 CRC 2CF55F1B 复制成功 没有错误发生 状态报告结尾 ==== 记录校验日志 84C058A01A2C3C4E0446477F4F9AC57B88B7F3ECD662BDC8EFA4B19A025769E3 ==== 试听曲目:Rain On Me 链接:包年会员可查看

Chromatica《Lady Gaga》[FLAC/MP3/无损]百度云网盘免费下载地址及提取码如下:

请登录后查阅

Lady Gagamp3下载,Lady Gagamp3百度云,Lady Gagamp3网盘下载,Lady Gagamp3免费下载地址由91f音乐网www.91f.net搜集分享,如果你觉得有侵犯你的权益,授权事宜、对本内容有异议或投诉,敬请联系网站管理员,我们将尽快回复您,谢谢合作!

Chromatica
《大笨(WAV母带专辑合集)[Hi》[FLAC/MP3/无损]百度云网盘免费下载地址 失眠《《失眠》》[FLAC/MP3/无损]百度云网盘免费下载地址

游客 回复需填写必要信息