首页韩语《Ariana Grande》[FLAC/MP3/无损]百度云网盘免费下载地址

《Ariana Grande》[FLAC/MP3/无损]百度云网盘免费下载地址

时间2022-12-04 06:04:00分类韩语浏览79

《Ariana Grande》[FLAC/MP3/无损]百度云网盘免费下载地址在文尾有提供,你可以直接点击跳到文尾查看并下载。

《Ariana Grande》[FLAC/MP3/无损]百度云网盘免费下载地址

微信截图_20221203233111.jpg (68.86 KB, 下载次数: 0) 下载附件 昨天23:32 上传 专辑介绍: ★流行神曲制造机 排行榜安娜公主 ★20岁空降告示牌No. 1 横扫65国排行榜冠军 【注意】不只是一张专辑 是一张见证天后诞生的代表作 【收录】英美超夯冠军神曲"Problem"; One Direction团员Harry Styles、法国电音巨星David Guetta、澳洲美眉Iggy Azalea、告示牌音乐奖嘻哈歌手Big Sean…等跨刀 2014年想要红翻天,似乎都跟叫安娜的有关系。一个是动画电影里的女主角安娜公主,一个是横扫全球乐坛的超级新人亚莉安娜Ariana Grande。这里的亚莉安娜,把一首“Problem”唱到横扫全球排行冠军、YouTube狂破一亿人次点击次数;她一出道就登上告示牌冠军写下历史,她以20岁之姿、勇夺全美音乐奖与全美直选奖最佳新进艺人。她是2014年美国流行乐界最大事件,玛丽亚凯莉的超级接班人,流行乐坛的安娜公主-亚莉安娜。 从小就喜欢唱歌,8岁时天后Gloria Estefan的一席话,更确认她成为歌手的决心。当年小安娜与家人在邮轮度假,在大人们聚集的卡拉OK中心,她拿着麦克风大唱铁达尼号主题曲,没想到吸引在场天后Gloria Estefan的注意,对着小安娜跟家人说:「妳比我更有天分走向歌唱这条路。」 拥有意大利血统的Ariana Grande,1993年6月26日出生于佛罗里达州。2008年登上百老汇舞台,演出音乐剧「13」,获得美国青少年剧场协会奖;2010年转进电视圈,参与尼克儿童电视频道制播的影集「Victorious」的四季演出。2013年3月以与饶舌歌手Mac Miller合作的单曲"The Way"在流行乐坛绽放光采,单曲挺进全美热门单曲榜TOP 10,iTunes畅销歌曲榜冠军,单曲销售超过300万张,音乐录像带在YouTube涌入1亿7000万人点看;同年6月接演尼可频道另一部影集「Sam & Cat」;9月以首张专辑『Yours Truly』创造发行首周空降全美流行专辑榜、数位专辑榜与iTunes专辑榜三冠王纪录,专辑在全球30多国的iTunes专辑榜夺冠;紧接着成为梅西百货感恩节大游行、洛克斐勒广场圣诞点灯、纽约时代广场跨年演唱会、白宫音乐会等活动争相邀请的演唱嘉宾。 2014年备受瞩目的全新专辑【My Everything】预购挺进全球iTunes 21国冠军,专辑中与澳洲美眉Iggy Azalea精彩交锋,揉合90年代节奏蓝调、嘻哈、放克元素的首支单曲"Problem"以首周43万5000张的销售成为2014年全美最佳首周销售单曲,同时写下全美排行榜史上单曲首周销售超过40万张的最年轻女歌手的纪录,单曲在全球65个国家登上冠军,勇夺英国金榜与全美数位歌曲榜冠军。 专辑第二波登场单曲“Break Free",iTunes上架首日就夺下美国与加拿大单曲榜冠军,专辑中的客座阵容包括:One Direction团员Harry Styles特地为她谱写动情力作"Just A Little Bit Of Your Heart";法国电音巨星David Guetta打造的"One Last Time";告示牌音乐奖嘻哈歌手Big Sean合作的灵魂乐情歌"Best Mistake";葛莱美奖提名潮派节奏蓝调歌手The Weeknd助阵的性感劲歌"Love Me Harder";与暱称Childish Gambino的喜剧影集「废柴联盟」影歌双栖艺人Donald Glover合作的"Break Your Heart Right Back"。精装盘加收三首Bonus tracks,包括与英国超夯女声Jessie J及嘻哈麻辣姬Nicki Minaj三人联手出击的"Bang Bang"神曲。能让英美两大当红天后共同合作,亚莉安娜魅力不小,Jessie J甚至说:「亚莉安娜的音域无人能比,我们不是在歌曲中互相竞技,这是我们三个人组成的女子团体出道单曲。」 专辑曲目: 1. Intro 2. Problem (featuring Iggy Azalea) 3. One Last Time 4. Why Try 5. Break Free (featuring Zedd) 6. Best Mistake (featuring Big Sean) 7. Be My Baby (featuring Cashmere Cat) 8. Break Your Heart Right Back (featuring Childish Gambino) 9. Love Me Harder (featuring The Weeknd) 10. Just a Little Bit of Your Heart 11. Hands On Me (featuring A$AP Ferg) 12. My Everything Exact Audio Copy V1.3 from 2. September 2016 EAC 抓取日志文件从13. 十月 2018, 20:35 Ariana Grande / My Everything 使用驱动器:ASUS SDRW-08D2S-U Adapter: 1ID: 0 读取模式 : 可靠Secure 使用精确流 : 是 清空音频缓存 : 是 使用 C2 指示器 : 否 读取偏移校正: : 0 读取 Lead-In 和 Lead-Out : 否 用静音填充抓取中丢失偏移的采样 : 是 去除首尾静音块 : 否 在CRC 计算中使用了空样本 : 是 已用接口 : Win NT 及 2000 本地 Win32 接口 所用输出模式: : 内部 WAV 函数 样本格式 : 44.100 Hz; 16 Bit; 立体声 已抓取 CD 的 TOC 音轨 | 起始 | 长度 |起始扇区|结束扇区 -------------------------------------------- 1 |0:00.00 |1:19.64 | 0 | 5988 2 |1:19.64 |3:13.69 | 5989 |20532 3 |4:33.58 |3:17.19 |20533 |35326 4 |7:51.02 |3:31.66 |35327 |51217 5 | 11:22.68 |3:34.63 |51218 |67330 6 | 14:57.56 |3:53.55 |67331 |84860 7 | 18:51.36 |3:37.04 |84861 | 101139 8 | 22:28.40 |4:13.29 | 101140 | 120143 9 | 26:41.69 |3:56.10 | 120144 | 137853 10 | 30:38.04 |3:52.44 | 137854 | 155297 11 | 34:30.48 |3:12.17 | 155298 | 169714 12 | 37:42.65 |2:48.41 | 169715 | 182355 范围状态及错误 已选择范围 文件名 C:\Users\888\Desktop\Ariana Grande - My Everything.wav 峰值电平 99.8 % 抓取速度 4.5 X 范围质量 100.0 % 复制 CRC 3F193813 复制成功 没有错误发生 状态报告结尾 ==== 记录校验日志 7CC0AEE174A951F170F9168EA95FDBAA88DD52DB25E8EABD2E393B451661FDC1 ==== 试听曲目:One Last Time 链接:包年会员可查看

《Ariana Grande》[FLAC/MP3/无损]百度云网盘免费下载地址及提取码如下:

请登录后查阅

Ariana Grandemp3下载,Ariana Grandemp3百度云,Ariana Grandemp3网盘下载,Ariana Grandemp3免费下载地址由91f音乐网www.91f.net搜集分享,如果你觉得有侵犯你的权益,授权事宜、对本内容有异议或投诉,敬请联系网站管理员,我们将尽快回复您,谢谢合作!

《大笨(WAV母带专辑合集)[Hi》[FLAC/MP3/无损]百度云网盘免费下载地址 失眠《《失眠》》[FLAC/MP3/无损]百度云网盘免费下载地址

游客 回复需填写必要信息