首页韩语心中的日月《王力宏》[FLAC/MP3/无损]百度云网盘免费下载地址

心中的日月《王力宏》[FLAC/MP3/无损]百度云网盘免费下载地址

时间2022-11-24 06:03:00分类韩语浏览18

心中的日月《王力宏》[FLAC/MP3/无损]百度云网盘免费下载地址在文尾有提供,你可以直接点击跳到文尾查看并下载。

心中的日月《王力宏》[FLAC/MP3/无损]百度云网盘免费下载地址

微信截图_20221123192401.jpg (132.34 KB, 下载次数: 0) 下载附件 昨天19:25 上传 微信截图_20221123192419.jpg (186.34 KB, 下载次数: 0) 下载附件 昨天19:25 上传 专辑介绍: 人类因为梦想而伟大。王力宏与生俱来的音乐使命感,有了起点而没有终点,现在到未来,是永不休止的音符。 为了“Chinked-Out”这个使命,力宏像个旅人坚持着他未完成的路,一直继续着那些关于音乐和跨越的事。在我们遗忘的音乐最初的模样时;在走遍全世界聆听着许多陌生新声音时,有一种渴望的沸腾,当印度乐、拉丁乐……等这些民族色彩浓厚的音乐元素跃上国际成为流行时,王力宏创造了“Chinked-Out”这个新身份赋予华语音乐迥然不同的新生命。在传说中的“香格里拉”,王力宏返璞归真的实现期待所有华人在他的音乐国度里感动一场你遗忘了许久的音乐盛宴,原来“心中的日月”就在这里。 “Chinked-Out”其实就是中国风的嘻哈音乐;王力宏与生俱来的音乐使命感,有感于华人音乐圈常常受到西方音乐文化的影响,却一直缺乏明确定位,因此大胆借用了chink这个词来命名自己的音乐,希望能确立华人新流行音乐的独特地位,引领东方流行音乐圈找出自己的方向,并尝试出更多的创意与想象。 力宏撷取了历年以来在中国旅行采风搜寻资料所获得的少数民族音乐元素,企图创造一张华人流行音乐新定位的专辑。这张专辑仍是货真价实的hip hop/R&B音乐,但力宏却巧妙的将中国的宫商角徵羽五音音阶作曲法融入在西洋的grooving节奏里。这样的创作意念贯彻在整张专辑的每一首歌里,从使用大量中国乐器的专辑同名曲《心中的日月》,到节奏轻快让人随之起舞的《放开你的心》,甚至使用大量弦乐、西洋乐器,听起来似乎闻不到中国味的情歌《一首简单的歌》,其实力宏都使用了中国五音作曲法,让人大呼讶异,原来华人五千年历史的音乐精神,可以在现代用这样的方式呈现! 虽然过去也有许多使用华人音乐元素的作品,但在使用的时候多半是将中国风当作一种“特色”或“花絮”,而不是完全融为一体。力宏的作品则是更进一步的跳脱跨越原有的藩篱,比如说《心中的日月》里不断隐隐约约穿插出现的笛声与古筝与R&B节奏的自然搭配;《竹林深处》里的西藏女声吟唱、中国鼓声、笛声与西方Hip Hop击掌声节奏相互呼应;《在那遥远的地方》不单sample了这首华人耳熟的民谣,当中反覆出现的陶笛声、扬琴与钢琴如风般的对话,听起来就像这些乐器与元素本来就是一体的,没有什么东西之分。做出具东方特色,但与西方结合得更好,让西方人也能听得懂 ,进而欣赏喜爱的无国界音乐,才是力宏“Chinked-Out”真正的企图。 中甸藏族将“心中的日月”解释为“香格里拉”,在藏语方言中是“人间仙境”的意思。在这里与世隔绝,有人说是一个可以人神共处的世外桃源,传说世界上只有一个地方,能看见壮丽的峡谷、纯静的湖泊、鲜艳的花海,在初升红日的映照下,雪山金光万丈,强烈的光芒让人感受到巨大的温暖与力量。当力宏来到千里之遥的“香格里拉”,放下俗世的名利头衔,单纯地拥抱无垠的草原、自在地与藏人在草原上高歌共舞,这种全然不同的感受,激发了力宏追寻音乐仙境的理想。 力宏将这一份对于音乐仙境的追寻憧憬,写成了专辑中第一首歌《心中的日月》。在这趟云藏之旅中,力宏找到了东方音乐的仙境,而在这张专辑中,王力宏更融合了在这一趟旅程中所感受到的每一份感动。因此专辑便以《心中的日月》为名,希望带给华语歌坛一股追寻音乐仙境的动力,聆听王力宏最简单的音符、最真实的感动。 《心中的日月》这张专辑,是王力宏有史以来创作概念贯串最完整的一张专辑。不但“Chinked-Out”精神在每一首歌中出现,力宏独有的多元化音乐风格也尽情的展现无疑。不但有“Chinked-Out”的代表作《心中的日月》、《竹林深处》、SAMPLE中国人耳熟能详民谣的《在那遥远的地方》,也有轻快动感的舞曲。《放开你的心》乍听之下完全是一首西洋舞曲,但力宏竟然是使用中国五音音阶创作出来的,令人不禁赞叹力宏结合东西方音乐的功力,也体会到“Chinked-Out”其实一点也不严肃,它可以是一个大家一起欢乐、一起舞动的开心音乐风格。 此外还有用轻松RAP唱出热门讨论话题的《星座》,每个人都爱讨论星座,无非是想更了解彼此;力宏用RAP的方式念唱12个星座,而研究星座的重点在于:女人的心怎么这么难懂? 当然也有简单纯净的情歌《Forever Love》、《一首简单的歌》。在这张专辑中,力宏的情歌回归到一种非常简单的纯粹音乐感受,没有过去的华丽与繁复。深情动人的《Forever Love》,是力宏真实恋爱的经验分享。十年前的《情敌贝多芬》为力宏开启了生命中的新舞台,却为恋情结束埋下了伏笔。这位过去恋人最近要订婚了,听见这个消息力宏感触良多,于是写下了《Forever Love》这首歌,里面赞颂着爱情的永恒,祝福天下有情人,也安慰伤心失恋者。 因为相信还有永远的爱情,因为曾经爱过获得幸福,力宏祝福对方能得到永恒的幸福,也用这首歌安慰在爱情上失意的人。《Forever Love》用了大量的弦乐来营造深情的氛围,但真正感人的,是力宏那颗相信有永恒爱情的心。这是王力宏继《唯一》之后最新情歌代表作。 《一首简单的歌》则是歌如其名,用最简单的旋律,不复杂的乐器编曲,传达出心中最纯粹的感情。歌词说“写一首简单的歌 让你的心情快乐 这一首简单的歌 并没有什么独特 好像我 那么平凡却又深刻”,这是力宏在香格里拉所体会到的道理:简单的生活,真挚的感情,却能传达最深刻的感受。 创作是一条长远的路,也是王力宏一直放在心上,心系念之的使命。“Chinked-Out”是一个开端,力宏开了个头,但他更希望整个华语乐坛能够一起努力,创造出更精采的属于华人的音乐作品。就像专辑的ENDING曲《Follow Me》,力宏希望整个华人都能跟上他的脚步,甚至超越他,让华人音乐能够迈向一个更高质感、国际化的新境界! 2004王力宏压轴演出,《心中的日月》是王力宏返璞归真的实现,期待所有华人在他的音乐国度里感动一场你遗忘了许久的音乐盛宴,期待在2005为华语乐坛带来新的曙光。 专辑曲目: 1 开场Intro 2 放开你的心 3 心中的日月 4 竹林深处 5 Forever Love 6 在那遥远的地方 7 一首简单的歌 8 星座 9 过来 10 爱错 11 Follow Me Exact Audio Copy V1.3 from 2. September 2016 EAC 抓取日志文件从5. 六月 2018, 9:28 王力宏 / 心中的日月 使用驱动器:ASUS SDRW-08D2S-U Adapter: 1ID: 0 读取模式 : 可靠Secure 使用精确流 : 是 清空音频缓存 : 是 使用 C2 指示器 : 否 读取偏移校正: : 0 读取 Lead-In 和 Lead-Out : 否 用静音填充抓取中丢失偏移的采样 : 是 去除首尾静音块 : 否 在CRC 计算中使用了空样本 : 是 已用接口 : Win NT 及 2000 本地 Win32 接口 所用输出模式: : 内部 WAV 函数 样本格式 : 44.100 Hz; 16 Bit; 立体声 已抓取 CD 的 TOC 音轨 | 起始 | 长度 |起始扇区|结束扇区 -------------------------------------------- 1 |0:00.00 |0:52.10 | 0 | 3909 2 |0:52.10 |3:44.62 | 3910 |20771 3 |4:36.72 |3:57.13 |20772 |38559 4 |8:34.10 |3:58.65 |38560 |56474 5 | 12:33.00 |4:53.00 |56475 |78449 6 | 17:26.00 |3:56.20 |78450 |96169 7 | 21:22.20 |4:09.27 |96170 | 114871 8 | 25:31.47 |3:05.60 | 114872 | 128806 9 | 28:37.32 |2:56.08 | 128807 | 142014 10 | 31:33.40 |3:58.62 | 142015 | 159926 11 | 35:32.27 |3:51.23 | 159927 | 177274 范围状态及错误 已选择范围 文件名 C:\Users\磊.000\Desktop\王力宏 - 心中的日月.wav 峰值电平 100.0 % 抓取速度 4.1 X 范围质量 100.0 % 复制 CRC 6E2BB95F 复制成功 没有错误发生 状态报告结尾 ==== 记录校验日志 FF834FA18E367803AAB4C3814C50E6BE7E398A99D34C87281C5DD587EB5873A8 ==== 试听曲目:心中的日月 链接:包年会员可查看

心中的日月《王力宏》[FLAC/MP3/无损]百度云网盘免费下载地址及提取码如下:

请登录后查阅

王力宏mp3下载,王力宏mp3百度云,王力宏mp3网盘下载,王力宏mp3免费下载地址由91f音乐网www.91f.net搜集分享,如果你觉得有侵犯你的权益,授权事宜、对本内容有异议或投诉,敬请联系网站管理员,我们将尽快回复您,谢谢合作!

心中的日月
The Harold Song《Ke$ha》[FLAC/MP3/无损]百度云网盘免费下载地址 2022最新好听网络伤感流行歌曲推荐(305)《群星《2022最新好听网络伤感流行歌曲推荐(305)》【WAV分轨/MP3/百度】》[FLAC/MP3/无损]百度云网盘免费下载地址

游客 回复需填写必要信息