首页DJ舞曲Motion《Calvin Harris》[FLAC/MP3/无损]百度云网盘免费下载地址

Motion《Calvin Harris》[FLAC/MP3/无损]百度云网盘免费下载地址

时间2022-12-04 06:04:00分类DJ舞曲浏览83

Motion《Calvin Harris》[FLAC/MP3/无损]百度云网盘免费下载地址在文尾有提供,你可以直接点击跳到文尾查看并下载。

Motion《Calvin Harris》[FLAC/MP3/无损]百度云网盘免费下载地址

微信截图_20221203184557.jpg (79.21 KB, 下载次数: 0) 下载附件 昨天18:47 上传 微信截图_20221203184415.jpg (58.58 KB, 下载次数: 0) 下载附件 昨天18:47 上传 专辑介绍: ◎蝉联富比士全球DJ吸金榜冠军宝座、五支英国金榜冠军单曲、Spotify「2014夏日国歌〈Summer〉」冠军点播王,主宰全球舞池的「电音金童」最新冠军力作 ◎特别钦点拥有沙哑醇厚嗓音的英伦新声John Newman合唱 ◎独家收录! 个人厂牌Fly Eye records纯电音之作〈C.U.B.A.〉 2014年,大家都在等英伦「电音金童」Calvin Harris全新专辑《Motion》!在富比士杂志今年公佈的全球DJ吸金排行榜,以大约台币19亿8千万,领先群雄,再度蝉联冠军宝座,稳坐当今EDM界一哥!主宰2014年整个夏日舞池的〈Summer〉,在线上串流Spotify成为「2014夏日国歌」,缔造全球超过1亿6000万次的疯狂点播率外,攀上英美两地舞曲榜冠军,送出美国3白金+挪威5白金+瑞典3白金+澳洲和墨西哥双白金,其他还有加拿大、德国、义大利、纽西兰、比利时等国家,皆颁发白金或金唱片认证。自从2012年发行的专辑《18 Months》一路翻红全球,屡屡创下傲人纪录,超越流行乐之王麦可杰克森的保持,改写金氏世界纪录认证英国金榜史上,一张专辑送出最多9首Top10单曲。统计至9月初,Calvin所有作品已累计超高的十亿次播放量! 《Motion》尚未发表前,Calvin挟带2013年10月与瑞典DJ Alesso+Hurts乐团合作〈Under Control〉、夏日国歌〈Summer〉两支单曲陆续夺冠的超强气势,再接再厉出版第三波主打〈Blame〉,请到提名3项全英音乐奖瞩目灵韵新声John Newman演绎,三连霸的夺取英国流行+舞曲双榜冠军,挺入超过20国的Top10排行榜之中。单曲抢听版裡头,享受〈Blame〉的过瘾激流,横扫舞池的EDM时髦节拍,外加新专辑《Motion》已公开完整曲目中,将不会收录无人声伴唱的纯电音之作〈C.U.B.A.〉,更显珍贵! 专辑曲目: 1. Faith 2. Under Control (with Alesso feat. Hurts) 3. Blame (feat. John Newman) 4. Love Now (feat. All About She) 5. Slow Acid 6. Outside (feat. Ellie Goulding) 7. It Was You (with Firebeatz) 8. Summer 9. Overdrive (with Ummet Ozcan) 10. Ecstasy (feat. Hurts) 11. Pray to God (feat. Haim) 12. Open Wide (feat. Big Sean) 13. Together (feat. Gwen Stefani) 14. Burnin' (with R3hab) 15. Dollar Signs (feat. Tinashe) Exact Audio Copy V1.3 from 2. September 2016 EAC 抓取日志文件从5. 四月 2017, 17:25 Calvin Harris / Motion 使用驱动器:Optiarc DVD RW AD-7560A Adapter: 1ID: 0 读取模式 : 可靠Secure 使用精确流 : 是 清空音频缓存 : 是 使用 C2 指示器 : 否 读取偏移校正: : 6 读取 Lead-In 和 Lead-Out : 否 用静音填充抓取中丢失偏移的采样 : 是 去除首尾静音块 : 否 在CRC 计算中使用了空样本 : 是 已用接口 : Win NT 及 2000 本地 Win32 接口 所用输出模式: : 内部 WAV 函数 样本格式 : 44.100 Hz; 16 Bit; 立体声 已抓取 CD 的 TOC 音轨 | 起始 | 长度 |起始扇区|结束扇区 -------------------------------------------- 1 |0:00.00 |3:39.15 | 0 |16439 2 |3:39.15 |3:04.21 |16440 |30260 3 |6:43.36 |3:32.72 |30261 |46232 4 | 10:16.33 |3:38.28 |46233 |62610 5 | 13:54.61 |3:41.59 |62611 |79244 6 | 17:36.45 |3:47.20 |79245 |96289 7 | 21:23.65 |3:44.29 |96290 | 113118 8 | 25:08.19 |3:42.40 | 113119 | 129808 9 | 28:50.59 |4:51.72 | 129809 | 151705 10 | 33:42.56 |3:41.51 | 151706 | 168331 11 | 37:24.32 |3:52.17 | 168332 | 185748 12 | 41:16.49 |3:07.41 | 185749 | 199814 13 | 44:24.15 |3:38.33 | 199815 | 216197 14 | 48:02.48 |3:54.58 | 216198 | 233805 15 | 51:57.31 |3:56.05 | 233806 | 251510 范围状态及错误 已选择范围 文件名 C:\Users\磊\Desktop\Calvin Harris - Motion.wav 峰值电平 100.0 % 抓取速度 4.0 X 范围质量 99.9 % 复制 CRC 92CCB8FE 复制成功 没有错误发生 AccurateRip 摘要 音轨1精确地校准抓取124)[8D9C5A38](AR v2) 音轨2精确地校准抓取124)[B9B0B8C5](AR v2) 音轨3精确地校准抓取125)[F6C327CC](AR v2) 音轨4精确地校准抓取124)[04CCCB3E](AR v2) 音轨5精确地校准抓取124)[2DE7F8D5](AR v2) 音轨6精确地校准抓取125)[00F7FAF8](AR v2) 音轨7精确地校准抓取124)[1EDADC80](AR v2) 音轨8精确地校准抓取124)[1B816CBC](AR v2) 音轨9精确地校准抓取124)[3EF0124A](AR v2) 音轨 10精确地校准抓取124)[21503AA6](AR v2) 音轨 11精确地校准抓取124)[1B49AC15](AR v2) 音轨 12精确地校准抓取122)[837B5185](AR v2) 音轨 13精确地校准抓取124)[5ABCEA71](AR v2) 音轨 14精确地校准抓取125)[3DAC0488](AR v2) 音轨 15精确地校准抓取121)[35C1B2A0](AR v2) 所有音轨精确校准抓取 状态报告结尾 ---- CUETools DB Plugin V2.1.6 试听曲目:Outside (feat. Ellie Goulding) 链接:包年会员可查看

Motion《Calvin Harris》[FLAC/MP3/无损]百度云网盘免费下载地址及提取码如下:

请登录后查阅

Calvin Harrismp3下载,Calvin Harrismp3百度云,Calvin Harrismp3网盘下载,Calvin Harrismp3免费下载地址由91f音乐网www.91f.net搜集分享,如果你觉得有侵犯你的权益,授权事宜、对本内容有异议或投诉,敬请联系网站管理员,我们将尽快回复您,谢谢合作!

Motion
《大笨(WAV母带专辑合集)[Hi》[FLAC/MP3/无损]百度云网盘免费下载地址 失眠《《失眠》》[FLAC/MP3/无损]百度云网盘免费下载地址

游客 回复需填写必要信息