首页DJ舞曲Teenage Dream: The Complete Confection《Katy Perry》[FLAC/MP3/无损]百度云网盘免费下载地址

Teenage Dream: The Complete Confection《Katy Perry》[FLAC/MP3/无损]百度云网盘免费下载地址

时间2022-12-04 06:04:00分类DJ舞曲浏览82

Teenage Dream: The Complete Confection《Katy Perry》[FLAC/MP3/无损]百度云网盘免费下载地址在文尾有提供,你可以直接点击跳到文尾查看并下载。

Teenage Dream: The Complete Confection《Katy Perry》[FLAC/MP3/无损]百度云网盘免费下载地址

微信截图_20221203204626.jpg (81.42 KB, 下载次数: 0) 下载附件 昨天20:47 上传 微信截图_20221203204635.jpg (61.67 KB, 下载次数: 0) 下载附件 昨天20:47 上传 专辑介绍: ★惊人缔造全球1100万张专辑与8100万张单曲销售的世纪天后 ★追平迈克尔杰克逊单张专辑五首全美冠军曲纪录的里程碑大作,空降英美等八国冠军,长驻公告牌流行专辑榜内超过两年之久 ★初版+改版全记录:一次蒐齐五首冠军曲“California Gurls”、“Teenage Dream”、“Firework”、“E.T.”、“Last Friday Night (T.G.I.F.)”,再追加Kanye West帮腔版“E.T.”+Missy Elliott站台版“Last Friday Night (T.G.I.F.)” 《Teenage Dream: The Complete Confection》是美国女歌手凯蒂·佩里的第二张录音室专辑是《Teenage Dream》的改版专辑,制作人包括阿莫、本尼·布兰科、乔·布里昂、库克·哈瑞尔、Cirkut、Dr. Luke、马克斯·马丁等,于2012年3月23日通过国会唱片公司发行。 累积入围9项格莱美奖之后,2014年再度获得「最佳流行个人演出」和「年度歌曲“Roar”」两项提名的Katy Perry,超人气的正能量不断飙升。截至2013年,短短5年时间已累积全球1100万张专辑和8100万张单曲的惊人销售量,更追平流行天王Michael Jackson纪录,成为史上第一位单张专辑缔造五首全美冠军曲的女歌手。她的歌曲唱出感情的真诚、人生的励志、青春的享乐、族群的包容、往日的缅怀,引起广大迴响与共鸣,获颁全美人民选择奖「最受欢迎女艺人」、全美音乐奖「特别成就奖」、Billboard封为「2012年度杰出女性」、入选滚石杂志「全球流行女皇」名单…等殊荣。 经过首张专辑惨赔、被多家唱片公司拒于门外、作品录好遭到搁置…等连串打击,在幕后努力创作多年的Katy Perry,终于在2008年盼到曙光。第二张专辑『One Of The Boys』进佔公告牌流行榜第9名+摇滚榜No.3,全球突破500万张销售,连续两年荣获格莱美奖「最佳流行女歌手」提名肯定。与同志话题连结的“Ur So Gay”和“I Kissed A Girl”成功打开知名度,接下来的“Hot N Cold”、“Waking Up In Vegas”和“Thinking Of You”,也陆续在国际间写下亮眼佳绩。 追平流行天王Michael Jackson单张专辑五首全美冠军曲纪录的里程碑大作【Teenage Dream】,不仅空降英美等八国冠军,更惊人长驻公告牌流行专辑榜内超过两年之久,至今全球销售逼近600万张,【Teenage Dream: The Complete Confection】为初版加改版歌曲全记录。这张专辑除了再度合作的Greg Wells(*Adele)、Dr. Luke(*Avril Lavigne)之外,还请到Max Martin(*Britney Spears)、Ammo(*Pitbull)、Benny Blanco(*Bruno Mars)、Kuk Harrell(*Rihanna)、Tricky Stewart(*Beyoncé)、StarGate(*Ne-Yo)、Sandy Vee(*David Guetta)…等当红制作群齐力操刀,连续在2011到2013年间入围多达7座格莱美奖肯定,收录的五首冠军曲包括:为了回应美国东岸之歌--Jay-Z和Alicia Keys合作的“Empire State Of Mind”,特别邀请饶舌大师Snoop Dogg帮腔打造西岸之歌“California Gurls”,Billboard选为「史上30首夏日歌曲」第一名;滚石杂志「2010年最佳50首歌曲」“Teenage Dream”,写满Katy青少年时期的回忆;鼓舞人心的“Firework”,单在美国就销出600万张;中板爱恋情歌“E.T.”,MV创意十足,以及欢乐迎接週末的“Last Friday Night (T.G.I.F.)”。改版首波主打“Part Of Me”,激爆41万数位下载量,成为公告牌史上第20首空降冠军之歌,“Wide Awake”则直奔全美亚军+舞曲榜冠军。此版本特别追加Kanye West帮腔版“E.T.”+Missy Elliott站台版“Last Friday Night (T.G.I.F.)”,以及由DJ/制作人Tommie Sunshine制作的组曲大串联“Tommie Sunshine's Megasix Smash-Up”。 即使凯蒂·佩里的第二张录音室专辑《Teenage Dream》诞生了五支美国公告牌百强单曲榜冠军单曲,与美国男歌手迈克尔·杰克逊的记录斠然一概,凯蒂·佩里也没有满足于一时,还要精益求精。所以她制作了《Teenage Dream: The Complete Confection》,将她的内心在该专辑中向听者呈现出来,以此回馈听者 。 凯蒂·佩里插手了《'Dressing Up》的填词工作。当凯蒂·佩里与罗素·布兰德的婚姻产生瓦解时,她就会将她的心情记录在日记本上,为此,她为该专辑创作的了一首干涉她与罗素·布兰德分手的歌曲,而该曲也借鉴了她在日记本上的随笔 。凯蒂·佩里为她主演的电影《Katy Perry: Part of Me》创作了《Wide Awake》 。 《Wide Awake》的创作灵感来源于“生活的重大变化”和凯蒂·佩里的想法:当一个人熬过低谷时期后才洞晓生活并不总是美好。为此,她写下这首歌曲,鼓舞听者敢于面对残酷的事实、勇往直前,让听者明白生活带来的教训,并祝愿大众能通过历练后变得更强大。 收录歌曲《Part of Me》于2010年创作完成,其歌词由邦妮·麦琪通宵完成,只是凯蒂·佩里认为该曲与《Teenage Dream》的整体风格不搭,而没有收录在《Teenage Dream》中。 专辑曲目: 1. Teenage Dream 2. Last Friday Night (T.G.I.F.) 3. California Gurls 4. Firework 5. Peacock 6. Circle The Drain 7. The One That Got Away 8. E.T. 9. Who Am I Living For? 10. Pearl 11. Hummingbird Heartbeat 12. Not Like The Movies 13. The One That Got Away 14. Part Of Me 15. Wide Awake 16. Dressin' Up 17. E.T. 18. Last Friday Night (T.G.I.F.) 19. Tommie Sunshine's Megasix Smash-Up Exact Audio Copy V1.3 from 2. September 2016 EAC 抓取日志文件从26. 四月 2017, 20:06 Katy Perry / Teenage Dream - The Complete Confection 使用驱动器:ASUS SDRW-08D2S-U Adapter: 1ID: 0 读取模式 : 可靠Secure 使用精确流 : 是 清空音频缓存 : 是 使用 C2 指示器 : 否 读取偏移校正: : 6 读取 Lead-In 和 Lead-Out : 是 用静音填充抓取中丢失偏移的采样 : 是 去除首尾静音块 : 否 在CRC 计算中使用了空样本 : 是 已用接口 : Win NT 及 2000 本地 Win32 接口 所用输出模式: : 内部 WAV 函数 样本格式 : 44.100 Hz; 16 Bit; 立体声 已抓取 CD 的 TOC 音轨 | 起始 | 长度 |起始扇区|结束扇区 -------------------------------------------- 1 |0:00.00 |3:49.57 | 0 |17231 2 |3:49.57 |3:52.56 |17232 |34687 3 |7:42.38 |3:57.50 |34688 |52512 4 | 11:40.13 |3:50.17 |52513 |69779 5 | 15:30.30 |3:53.69 |69780 |87323 6 | 19:24.24 |4:34.69 |87324 | 107942 7 | 23:59.18 |3:49.25 | 107943 | 125142 8 | 27:48.43 |3:28.70 | 125143 | 140812 9 | 31:17.38 |4:10.40 | 140813 | 159602 10 | 35:28.03 |4:10.05 | 159603 | 178357 11 | 39:38.08 |3:34.21 | 178358 | 194428 12 | 43:12.29 |4:03.37 | 194429 | 212690 13 | 47:15.66 |4:21.47 | 212691 | 232312 14 | 51:37.38 |3:38.12 | 232313 | 248674 15 | 55:15.50 |3:43.01 | 248675 | 265400 16 | 58:58.51 |3:46.06 | 265401 | 282356 17 | 62:44.57 |3:52.16 | 282357 | 299772 18 | 66:36.73 |4:01.13 | 299773 | 317860 19 | 70:38.11 |7:03.04 | 317861 | 349589 范围状态及错误 已选择范围 文件名 C:\Users\磊\Desktop\Katy Perry - Teenage Dream - The Complete Confection.wav 峰值电平 100.0 % 抓取速度 5.2 X 范围质量 99.9 % 复制 CRC 348FE7A6 复制结束 没有错误发生 状态报告结尾 ---- CUETools DB Plugin V2.1.6 试听曲目:Last Friday Night (T.G.I.F.) 链接:包年会员可查看

Teenage Dream: The Complete Confection《Katy Perry》[FLAC/MP3/无损]百度云网盘免费下载地址及提取码如下:

请登录后查阅

Katy Perrymp3下载,Katy Perrymp3百度云,Katy Perrymp3网盘下载,Katy Perrymp3免费下载地址由91f音乐网www.91f.net搜集分享,如果你觉得有侵犯你的权益,授权事宜、对本内容有异议或投诉,敬请联系网站管理员,我们将尽快回复您,谢谢合作!

Teenage Dream: The Complete Confection
《大笨(WAV母带专辑合集)[Hi》[FLAC/MP3/无损]百度云网盘免费下载地址 失眠《《失眠》》[FLAC/MP3/无损]百度云网盘免费下载地址

游客 回复需填写必要信息