首页DJ舞曲《Various》[FLAC/MP3/无损]百度云网盘免费下载地址

《Various》[FLAC/MP3/无损]百度云网盘免费下载地址

时间2022-12-04 06:04:00分类DJ舞曲浏览68

《Various》[FLAC/MP3/无损]百度云网盘免费下载地址在文尾有提供,你可以直接点击跳到文尾查看并下载。

《Various》[FLAC/MP3/无损]百度云网盘免费下载地址

微信截图_20221203211849.jpg (181.36 KB, 下载次数: 0) 下载附件 昨天21:19 上传 专辑介绍: 【饥饿游戏:星火燎原】原声带由7座葛莱美奖喝采的英伦摇滚大团Coldplay揭开序幕,这是该团首度为电影创作歌曲,主唱Chris Martin以凯妮丝与比德在饥饿游戏战场上的情感连结作为发想,打造出以钢琴为主奏的摇滚情歌"Atlas",单曲蝉连42国iTunes销售榜冠军。葛莱美奖流行歌后Christina Aguilera献唱与OneRepublic乐团主脑Ryan Tedder共同创作的抒情金曲"We Remain";以"Ho Hey"蝉连全美摇滚/另类/成人抒情/成人流行四大榜冠军、缔造450万张单曲销售的民谣创作乐团The Lumineers,以盖尔看待凯妮丝与比德情感关系的角度写下民谣小品"Gale Song";2013年荣获欧盟所创设的破除音乐界线奖的冰岛独立民谣乐团Of Monsters And Men,以凯妮丝回想逝去亲友的复杂情绪写下内心澎拜独白的摇滚曲"Silhouettes";出道首支单曲"Royals"称霸全美热门/流行/摇滚/另类/成人流行五大排行榜与英国金榜冠军的纽西兰16岁天才少女Lorde,重新诠释80年代英国新浪潮摇滚团Tears For Fears的冠军经典"Everybody Wants To Rule The World"。 专辑曲目: Atlas - Coldplay Silhouettes - Of Monsters and Men Elastic Heart - Sia, The Weeknd, Diplo Lean - The National We Remain - Christina Aguilera Devil May Cry - The Weeknd Who We Are - Imagine Dragons Everybody Wants To Rule The World - Lorde Gale Song - The Lumineers Mirror - Ellie Goulding Capitol Letter - Patti Smith Shooting Arrows At The Sky - Santigold Exact Audio Copy V1.3 from 2. September 2016 EAC 抓取日志文件从16. 十一月 2017, 10:02 Various / The Hunger Games: Catching Fire – Original Motion Picture Soundtrack 使用驱动器:ASUS SDRW-08D2S-U Adapter: 1ID: 0 读取模式 : 可靠Secure 使用精确流 : 是 清空音频缓存 : 是 使用 C2 指示器 : 否 读取偏移校正: : 0 读取 Lead-In 和 Lead-Out : 否 用静音填充抓取中丢失偏移的采样 : 是 去除首尾静音块 : 否 在CRC 计算中使用了空样本 : 是 已用接口 : Win NT 及 2000 本地 Win32 接口 所用输出模式: : 内部 WAV 函数 样本格式 : 44.100 Hz; 16 Bit; 立体声 已抓取 CD 的 TOC 音轨 | 起始 | 长度 |起始扇区|结束扇区 -------------------------------------------- 1 |0:00.00 |3:56.23 | 0 |17722 2 |3:56.23 |4:31.23 |17723 |38070 3 |8:27.46 |4:17.70 |38071 |57415 4 | 12:45.41 |4:31.20 |57416 |77760 5 | 17:16.61 |4:00.12 |77761 |95772 6 | 21:16.73 |5:23.57 |95773 | 120054 7 | 26:40.55 |4:09.24 | 120055 | 138753 8 | 30:50.04 |2:35.44 | 138754 | 150422 9 | 33:25.48 |3:05.61 | 150423 | 164358 10 | 36:31.34 |4:21.53 | 164359 | 183986 11 | 40:53.12 |3:33.35 | 183987 | 199996 12 | 44:26.47 |3:36.68 | 199997 | 216264 范围状态及错误 已选择范围 文件名 C:\Users\磊\Desktop\Various - The Hunger Games- Catching Fire – Original Motion Picture Soundtrack.wav 峰值电平 100.0 % 抓取速度 4.4 X 范围质量 100.0 % 复制 CRC 3C6E58F6 复制成功 没有错误发生 状态报告结尾 ==== 记录校验日志 E81C38F1E5145B5FC172955A8B114463A30B4209AAE28CB0D9BEC9CFB9375D84 ==== 试听曲目:Elastic Heart 链接:包年会员可查看

《Various》[FLAC/MP3/无损]百度云网盘免费下载地址及提取码如下:

请登录后查阅

Variousmp3下载,Variousmp3百度云,Variousmp3网盘下载,Variousmp3免费下载地址由91f音乐网www.91f.net搜集分享,如果你觉得有侵犯你的权益,授权事宜、对本内容有异议或投诉,敬请联系网站管理员,我们将尽快回复您,谢谢合作!

《大笨(WAV母带专辑合集)[Hi》[FLAC/MP3/无损]百度云网盘免费下载地址 失眠《《失眠》》[FLAC/MP3/无损]百度云网盘免费下载地址

游客 回复需填写必要信息