首页DJ舞曲《Ed Sheeran》[FLAC/MP3/无损]百度云网盘免费下载地址

《Ed Sheeran》[FLAC/MP3/无损]百度云网盘免费下载地址

时间2022-12-04 06:04:00分类DJ舞曲浏览74

《Ed Sheeran》[FLAC/MP3/无损]百度云网盘免费下载地址在文尾有提供,你可以直接点击跳到文尾查看并下载。

《Ed Sheeran》[FLAC/MP3/无损]百度云网盘免费下载地址

微信截图_20221203215752.jpg (70.65 KB, 下载次数: 0) 下载附件 昨天21:58 上传 专辑介绍: 2300万张专辑总销量 94亿串流点听次数 40亿官方YouTube观赏次数 不断改写历史、创造乐坛新纪录 *收录2017全新双单曲「Castle On The Hill山丘上的城堡」+「Shape Of You你的样子」,同步称霸全球多国排行榜冠军+亚军席次,打破英美排行双纪录,合并拿下128国iTunes榜冠军,火速冲破全球5亿6000万串流点听次数! *豪华典藏版独家加收「Barcelona巴塞隆纳」、「Bibia Be Ye Ye」、「Nancy Mulligan 南茜墨礼根」、「Save Myself拯救自己」4首全新作品! 顶着一头红发标记、挂着一个腼腆笑容、背着一把空心吉他、倚着一副温暖歌声,红发艾德替人们找回聆听音乐的纯粹度与原始感动,笔下诉说出的酸甜苦辣箇中滋味故事,无需花俏缀饰、过多后制修饰,就能轻易引发共鸣并深深为之著迷! 2017年甫进入英国首本贵族年鉴德倍礼(Debrett's)的『英国最具影响力人物』名单之列的红发艾德,仅以“+"和“x"两张专辑,不仅成功地连续荣登全英冠军、在全美分别拿下Top5与冠军排行,缔造全英8首+全美3首Top10单曲,荣获2座格莱美+4座全英音乐奖等全球重要奖项肯定,更写下无数傲人纪录,包括:IFPI认证2014年全球最畅销男歌手、2014与2015年全球Spotify点听总冠军艺人与专辑、全英金榜有史以来首位停留专辑排行Top10连续长达71周的艺人,全球突破2300万张专辑总销售量,至今更已累积94亿串流点听次数(其中光是Spotify就破47亿点播次数)、官方YouTube频道破40亿点击观赏次数!陆续受邀为泰勒丝、罗比威廉斯、威肯、小贾斯汀、1世代等当红艺人谱写歌谣,并分别替【哈比人:荒谷恶龙】、【生命中的美好缺憾】等卖座电影量身打造主题曲「I See Fire」和「All Of The Stars」!短短5年间,立下许多丰功伟业的高门槛记录,而这些成绩还在不断发酵累积中,写下一页页的不朽新史,全球共同迎接这位新巨星的诞生! 2011年发行首张大碟”+”,代表对之前大批独立作品的一个总结,全球逾900万张销售量,一口气抱回全英音乐奖『最佳英国新人』、『最佳英国男艺人』两大头衔! 2014年出版”x”, 全球开出1300万张销售红盘,登记全球90国iTunes榜冠军,徘徊英国金榜Top10一整年、Top100长达两年之久!众所期待的第三张专辑”÷”,动员邀约现年28岁却早已制作出全球破千万销量作品、进入『创作名人殿堂』的Benny Blanco(魔力红、凯蒂佩芮)+全英音乐奖得主Steve Mac(夏奇拉、詹姆仕布朗特)+与德瑞博士、阿姆合作走红的跨界奇才Mike Elizondo+艾尔顿强的音乐厂牌Rocket Music旗下专属写歌/制作高手Will Hicks+Snow Patrol和Vega4乐团成员Johnny McDaid等多位名师协力掌舵。红发艾德花费一年时间潜心写歌,再度自我突破地拉宽音乐视野! 2017年1月6日一次问市「Castle On The Hill」+「Shape Of You」双单曲,即刻造成狂热回响,不断改写历史、创造全新纪录,包括:同步称霸全球多国排行榜冠军+亚军席次,打破英美两地排行榜史,成为首位同时两首单曲空降全英排行榜冠亚军以及全美告示排热门单曲榜Top10的艺人,其中空降英美双榜冠军的「Shape Of You」更成为告示牌史上第27首空降排行冠军的单曲,且就像是打不倒的勇者,经过2周退出首位之后,于第​​4周又再度登顶成功!两首单曲合并拿下128国iTunes榜冠军,并以不到一个月的时间惊人地累积冲破全球5亿6000万串流点听次数! 有两首旗开得胜的精彩单曲当前导,接下来还有一连串不可思议的惊喜等着乐迷来体验!揭起序幕的「Eraser」,直接秀出不输阿姆的白人饶舌技艺,又能伴随演唱的好歌喉,酷劲十足地在一开场即下一道猛药;嘶声力竭演绎「Dive」,沙哑高亢的音频伴随蓝调吉他弹奏,对于诚心接纳的真情挚爱大声呼唤,令人无比动容;浪漫到底的「Perfect」,飘扬出的柔顺弦乐如此醉心美丽,量身打造一支新世代的结婚进行曲;将传统居尔特民族之音融入嘻哈流行区块,飙出大胆又雀跃起舞之作「Galway Girl」;组织大型管弦乐团伴奏的「Happier」,情绪澎湃地撩起碎心恋曲,透露对刚分手女友的不舍与依恋;回归民谣舒适度的「Hearts Don`t Break Around Here」,Acoustic吉他频率足以让一颗对爱不变的心持续保温取暖;简单钢琴辅佐的「Supermarket Flowers 」,闭上眼睛细细品味的同时,不知不觉眼眶已经湿润;红发艾德玩起Beatbox,一旁的萨克斯風和小号热闹陪衬,借着「Barcelona」来趟充满阳光的异国旅行吧!还有选用非洲打击乐器的「Bibia Be Ye Ye」、居尔特之音再度环绕的「Nancy Mulligan」,一再令人诧异红发艾德大步跨出多元丰富的新节奏,感受他那畅快激昂与新鲜活力并行的缤纷洒脱,沉沦在他那热切拥抱梦想理念与情爱诗篇的动人乐章中! 专辑曲目: Eraser Castle on the Hill Dive Shape of You Perfect Galway Girl Happier New Man Hearts Don't Break Around Here What Do I Know? How Would You Feel (Paean) Supermarket Flowers Barcelona Bibia Be Ye Ye Nancy Mulligan Save Myself Exact Audio Copy V1.3 from 2. September 2016 EAC 抓取日志文件从28. 二月 2018, 16:42 Ed Sheeran / Divide (Deluxe Edition) 使用驱动器:ASUS SDRW-08D2S-U Adapter: 1ID: 0 读取模式 : 可靠Secure 使用精确流 : 是 清空音频缓存 : 是 使用 C2 指示器 : 否 读取偏移校正: : 0 读取 Lead-In 和 Lead-Out : 否 用静音填充抓取中丢失偏移的采样 : 是 去除首尾静音块 : 否 在CRC 计算中使用了空样本 : 是 已用接口 : Win NT 及 2000 本地 Win32 接口 所用输出模式: : 内部 WAV 函数 样本格式 : 44.100 Hz; 16 Bit; 立体声 已抓取 CD 的 TOC 音轨 | 起始 | 长度 |起始扇区|结束扇区 -------------------------------------------- 1 |0:00.00 |3:48.32 | 0 |17131 2 |3:48.32 |4:21.23 |17132 |36729 3 |8:09.55 |3:58.33 |36730 |54612 4 | 12:08.13 |3:53.54 |54613 |72141 5 | 16:01.67 |4:23.30 |72142 |91896 6 | 20:25.22 |2:50.62 |91897 | 104708 7 | 23:16.09 |3:27.39 | 104709 | 120272 8 | 26:43.48 |3:09.21 | 120273 | 134468 9 | 29:52.69 |4:08.31 | 134469 | 153099 10 | 34:01.25 |3:57.25 | 153100 | 170899 11 | 37:58.50 |4:40.40 | 170900 | 191939 12 | 42:39.15 |3:41.08 | 191940 | 208522 13 | 46:20.23 |3:11.11 | 208523 | 222858 14 | 49:31.34 |2:56.56 | 222859 | 236114 15 | 52:28.15 |2:59.59 | 236115 | 249598 16 | 55:27.74 |4:07.08 | 249599 | 268131 范围状态及错误 已选择范围 文件名 C:\Users\磊.000\Desktop\Ed Sheeran - Divide (Deluxe Edition).wav 峰值电平 100.0 % 抓取速度 4.6 X 范围质量 100.0 % 复制 CRC 7BDB039E 复制成功 没有错误发生 状态报告结尾 ==== 记录校验日志 2453A603B0B0031EBC97548B70DEE7139CD1225184B4D4C1E70B9EBFA1BFE8A4 ==== 试听曲目:Shape of You 链接:包年会员可查看

《Ed Sheeran》[FLAC/MP3/无损]百度云网盘免费下载地址及提取码如下:

请登录后查阅

Ed Sheeranmp3下载,Ed Sheeranmp3百度云,Ed Sheeranmp3网盘下载,Ed Sheeranmp3免费下载地址由91f音乐网www.91f.net搜集分享,如果你觉得有侵犯你的权益,授权事宜、对本内容有异议或投诉,敬请联系网站管理员,我们将尽快回复您,谢谢合作!

《大笨(WAV母带专辑合集)[Hi》[FLAC/MP3/无损]百度云网盘免费下载地址 失眠《《失眠》》[FLAC/MP3/无损]百度云网盘免费下载地址

游客 回复需填写必要信息