首页DJ舞曲The Harold Song《Ke$ha》[FLAC/MP3/无损]百度云网盘免费下载地址

The Harold Song《Ke$ha》[FLAC/MP3/无损]百度云网盘免费下载地址

时间2022-11-23 22:03:00分类DJ舞曲浏览18

The Harold Song《Ke$ha》[FLAC/MP3/无损]百度云网盘免费下载地址在文尾有提供,你可以直接点击跳到文尾查看并下载。

The Harold Song《Ke$ha》[FLAC/MP3/无损]百度云网盘免费下载地址

微信截图_20221123204321.jpg (277.17 KB, 下载次数: 0) 下载附件 1小时前 上传 微信截图_20221123204331.jpg (181.12 KB, 下载次数: 0) 下载附件 1小时前 上传 专辑介绍: Ke$ha钱妞有一首特别私密的慢板情歌叫《The Harold Song》,收录于2010年末她的《Animal》专辑后续作品《Cannibal》EP里。这首歌是Kesha写给自己的初恋情人(显而易见那个幸运的男人名叫Harold)的情歌,里面讲了一个真实得能够令我们身临其境的故事——青少年时代,穷困潦倒的Kesha和Harold,爬过重重防卫的护栏,偷溜进The Rolling Stones乐队的演出现场,在人群里远远地听着Mick Jagger唱歌,Kesha在歌里说,这是她人生中最美好的一个夜晚。 2010年Kesha推出的首碟《Animal》让她摆脱了爬护栏看演出的窘境,过上了真正的纸醉金迷生活。她将这样一个陈旧的故事写进歌里,剥除掉所有花哨的装饰,简简单单的慢板情歌里不仅表露了她年少无暇的爱,也表达了那个热血年纪里,她对摇滚乐不遮不掩的热忱。《Animal》和《Cannibal》的成功,终于使Kesha不再委屈于太过迂腐的流行舞曲曲风,她在2011年的巡演里宣布自己的第二张专辑将会开拓摇滚乐市场,她用“Cock Rock”这样一个名字来形容自己将要做的音乐,并承认她的音乐启蒙来自于上世纪70年代的摇滚乐。其后,这张专辑的参与人员也一步步曝光,遗憾的是,这一制作阵容与《Animal》并无太大区别,仅有The Flaming Lips能够与摇滚乐沾上边,但Kesha与他们的合作似乎也仅仅止于2012年春天The Flaming Lips自己的录音室专辑《The Flaming Lips and Heady Fwends》而已,对,就是那张历史上第一张充满流动液体的黑胶唱片,而这些混合血液,则包含了Kesha在内的音乐人的真实血液。 所有的噱头都不如新专辑首单的出现,作为Kesha第二张正式专辑《Warrior》的第一波主打,《Die Young》这一名字像极了用以形容历史上许多著名的摇滚艺人的词汇,而实际内容却与摇滚乐毫不相关,相反还是离不开《Animal》里大肆宣扬的舞池狂欢精神。尽管Kesha试图将自己的第二张专辑变得更实验性和摇滚化,但能够轻易冲进公告牌排行榜的前十名位置的这些流行歌,还是占据了很快就发行的《Warrior》专辑,Kesha在解释这一情况的时候表示说:“没办法,写流行歌曲仿佛是我的天赋。”接下来,我们便能全盘感受到《Warrior》沿袭自《Animal》的一成不变的流行舞曲套路——同名开篇曲《Warrior》已经在唱法上极尽可能地向“豪迈”和“磅礴”这样的形容词靠近了,后期音效则又将这种情态置入了霓虹灯之下,再结合此次Kesha的形象,绝对有一种泛着土气的迪斯科舞曲之感,问题是,从第一张洒满金粉的专辑开始,Kesha能够引发恶趣味的造型装扮,反而成为了她的招牌,怎么看都土都难看,但坚持就成了代表。如果在《Warrior》里挑一首歌作为Kesha式流行歌曲样板作品的话,《C'Mon》绝对符合这样的要求,放到哪里大家都能听出来这是独属于Kesha的作品——舞曲节拍、说唱段落、合唱高潮,是的,这便是Kesha对于其个人第二张专辑的最大要求:在舞池里听到便能够让人扭起来的节拍;属于她个人的白人女孩说唱;更多的摇滚乐器伴奏和能够在现场引发大合唱的高潮段落。而和Iggy Pop合唱的一曲《Dirty Love》,生搬硬套倒是可以拿出来与70年代的肮脏摇滚乐作连结,毕竟Kasha之所以能够创作这首歌,也是受了Iggy Pop在70年代创作的音乐和画作的影响。 严格一点来评价这张《Warrior》的话,可以说这是一张流行音乐流水线上下来的产品,但作为一个创作歌手,Kesha在自己专辑里倾注的心血并不少,同时也证明了她是一个有自己想法和追求的女孩,正是她的存在,侧面反映了这样一个问题——创作型流行歌手在写歌时,怎样在自我追求、团队水平和大众市场三者上取得一个平衡?而从《Warrior》整体上来听,这场摇滚乐和流行乐的对垒中,流行乐依旧占着上风,披着霓虹战衣的Kesha或许在这一场战役上,还得走很长一段路。 幸好,我们还能在Kesha的音乐里听到很多真实的声音,像《Wonderland》这样一首有着俗气名字的歌曲,便是一首和《The Harold Song》一样取材自亲身经历的歌曲,她将这首歌送给了自己年少时的好友们。这些慢板歌曲里总是映射着Kesha的内心,年轻时候的爱恋和执着,在成长的过程里会慢慢地流逝,但Kesha并没有放弃去寻回去弥补,也正是这样一份细微的、对真实情感诉求,支撑着她披上霓裳,在战场上越战越勇。 专辑曲目: Warrior Die Young C'Mon Thinking Of You Crazy Kids Wherever You Are Dirty Love Wonderland Only Wanna Dance With You Supernatural All That Matters (The Beautiful Life) Love Into The Light Exact Audio Copy V1.3 from 2. September 2016 EAC 抓取日志文件从5. 四月 2017, 18:58 Ke$ha / Warrior 使用驱动器:Optiarc DVD RW AD-7560A Adapter: 1ID: 0 读取模式 : 可靠Secure 使用精确流 : 是 清空音频缓存 : 是 使用 C2 指示器 : 否 读取偏移校正: : 6 读取 Lead-In 和 Lead-Out : 否 用静音填充抓取中丢失偏移的采样 : 是 去除首尾静音块 : 否 在CRC 计算中使用了空样本 : 是 已用接口 : Win NT 及 2000 本地 Win32 接口 所用输出模式: : 内部 WAV 函数 样本格式 : 44.100 Hz; 16 Bit; 立体声 已抓取 CD 的 TOC 音轨 | 起始 | 长度 |起始扇区|结束扇区 -------------------------------------------- 1 |0:00.00 |4:00.26 | 0 |18025 2 |4:00.26 |3:31.69 |18026 |33919 3 |7:32.20 |3:34.25 |33920 |49994 4 | 11:06.45 |3:04.14 |49995 |63808 5 | 14:10.59 |3:50.56 |63809 |81114 6 | 18:01.40 |3:58.34 |81115 |98998 7 | 21:59.74 |2:44.22 |98999 | 111320 8 | 24:44.21 |3:42.72 | 111321 | 128042 9 | 28:27.18 |3:31.36 | 128043 | 143903 10 | 31:58.54 |4:10.74 | 143904 | 162727 11 | 36:09.53 |3:37.49 | 162728 | 179051 12 | 39:47.27 |4:46.59 | 179052 | 200560 范围状态及错误 已选择范围 文件名 C:\Users\磊\Desktop\Ke$ha - Warrior.wav 峰值电平 100.0 % 抓取速度 4.3 X 范围质量 99.9 % 复制 CRC 9ABF7BA5 复制成功 没有错误发生 AccurateRip 摘要 音轨1精确地校准抓取6)[E1BA8C7C](AR v2) 音轨2精确地校准抓取7)[B5B22268](AR v2) 音轨3精确地校准抓取7)[06193A3C](AR v2) 音轨4精确地校准抓取6)[22C8E531](AR v2) 音轨5精确地校准抓取7)[F63D7D33](AR v2) 音轨6精确地校准抓取6)[B59D2319](AR v2) 音轨7精确地校准抓取6)[E105B3FD](AR v2) 音轨8精确地校准抓取6)[E21A76EB](AR v2) 音轨9精确地校准抓取56)[0C9701F1](AR v2) 音轨 10精确地校准抓取56)[248C1707](AR v2) 音轨 11精确地校准抓取6)[30A359ED](AR v2) 音轨 12精确地校准抓取6)[71AA62C6](AR v2) 所有音轨精确校准抓取 状态报告结尾 ---- CUETools DB Plugin V2.1.6 试听曲目:Die Young 链接:包年会员可查看

The Harold Song《Ke$ha》[FLAC/MP3/无损]百度云网盘免费下载地址及提取码如下:

请登录后查阅

Ke$hamp3下载,Ke$hamp3百度云,Ke$hamp3网盘下载,Ke$hamp3免费下载地址由91f音乐网www.91f.net搜集分享,如果你觉得有侵犯你的权益,授权事宜、对本内容有异议或投诉,敬请联系网站管理员,我们将尽快回复您,谢谢合作!

The Harold Song
《孙燕姿》[FLAC/MP3/无损]百度云网盘免费下载地址 心中的日月《王力宏》[FLAC/MP3/无损]百度云网盘免费下载地址

游客 回复需填写必要信息