首页DJ舞曲能量豆阵The E.N.D.《The Black Eyed Peas》[FLAC/MP3/无损]百度云网盘免费下载地址

能量豆阵The E.N.D.《The Black Eyed Peas》[FLAC/MP3/无损]百度云网盘免费下载地址

时间2022-11-23 22:03:00分类DJ舞曲浏览15

能量豆阵The E.N.D.《The Black Eyed Peas》[FLAC/MP3/无损]百度云网盘免费下载地址在文尾有提供,你可以直接点击跳到文尾查看并下载。

能量豆阵The E.N.D.《The Black Eyed Peas》[FLAC/MP3/无损]百度云网盘免费下载地址

微信截图_20221123205721.jpg (155.95 KB, 下载次数: 0) 下载附件 1小时前 上传 微信截图_20221123205730.jpg (83.58 KB, 下载次数: 0) 下载附件 1小时前 上传 专辑介绍: Preview: 2009年全年蝉连公告牌排行,52週拿下1100万张销售, 3080万次付费下载 Start: 首支单曲"The Time (Dirty Bit)" 启动派对专属应用程序 The Beginning: 领先潮流全面创新,融合电音舞曲,摇滚嘻哈,全面启动科技豆豆 缔造全球超过2800万张专辑销售以及3080万首歌曲下载销售,在全球29个国家举行超过300场以上的巡迴演唱会,累计门票销售超过 220万张,荣获6座格莱美奖与8座全美音乐奖,当今嘻哈乐坛唯一天团,就只有The Black Eyed Peas/黑眼豆豆合唱团! 作为黑眼豆豆的第六张专辑 ,这张专辑是他们于2009年6月发表的专辑《能量豆阵The E.N.D. 》的延续。《能量豆阵》在全球范围内共售出了1千1百万张,在美国公告牌专辑榜上榜52周。他们也是过去20年中唯一在一张唱片里就拥有5首公告牌前十单曲的组合,这些单曲中包括了3首冠军单曲:“蹦蹦跳Boom Boom Pow”, “感觉I Gotta Feeling”(这支单曲是史上数字销售成绩最好的单曲)和“我要Imma Be”,以及入围前十的歌曲“半路相遇Meet Me Halfway” 和“摇滚魂Rock That Body”。此外,《能量豆阵》还得到了2010年格莱美奖的6项提名,并且最终获得了“最佳流行演唱专辑”,“最佳音乐录影带”和“最佳流行组合”三项大奖。2010年,黑眼豆豆将再以最 新大碟【The Beginning】,开创流行音乐新时代。 创作首脑will.i.am表示:「专辑名称The Beginning指的是全世界正在发生的事,它象徵採用新的技术,像是扩增实境,3D与360度全景环绕影像,它也代表著实验精神,把我们喜欢过的歌曲 玩些令人晕头转向、疯狂的节奏花样。」首支单曲"The Time (Dirty Bit)"就是此一音乐创作宣言最强而有力的实践,歌曲取样1987年电影「辣身舞」冠军主题曲"(I’ve Had) The Time Of My Life",透过这首经典情歌的歌词投射出黑眼豆豆多年来在巡迴演唱会上所拥有的美好时光,他们想要发表一首与乐迷一同欢度美好时光的歌曲,因为,要不是 乐迷的支持,这一切都不会实现。 除了在歌曲取样制作与华丽摇滚、流行电子乐、高动能舞曲等不同节奏元素之间进行新鲜尝试之外,黑眼豆豆也将擅长的合成器音色与自动调音的变音演唱效 果带到全新的境界。首支单曲"The Time (Dirty Bit)"融合了电子舞曲与工业舞曲元素,发行首週空降英国舞曲榜冠军!至于取样迪斯可/节奏蓝调乐团Chic 1978年英国金榜TOP20畅销曲"My Forbidden Lover"的流行舞曲"Fashion Beats"中,will.i.am透过Fergie的唱腔变化,微妙串接21世纪时髦狂野与80年代的颓废风情。还有将德国工业舞曲元素来个迷幻大改造 的新酷感舞曲"Do It Like This",将冰冷的电子乐、简单化的节奏与机械式的人声演唱进行混搭的"XOXOXO"。这张专辑展现了黑眼豆豆启动派对专属应用程序,豆豆一族,请扣 紧你的安全带,精彩的游戏正要开始! 专辑曲目: 01. The Time (Dirty Bit) 02. Light Up The Night 03. Love You Long Time 04. XOXOXO 05. Someday 06. Whenever 07. Fashion Beats 08. Don't Stop The Party 09. Do It Like This 10. The Situation 11. The Coming 12. Own It 13. The Best One Yet (The Boy) 14. Just Can't Get Enough 15. Play It Loud Exact Audio Copy V1.3 from 2. September 2016 EAC 抓取日志文件从8. 五月 2017, 18:13 The Black Eyed Peas / The Beginning 使用驱动器:ASUS SDRW-08D2S-U Adapter: 1ID: 0 读取模式 : 可靠Secure 使用精确流 : 是 清空音频缓存 : 是 使用 C2 指示器 : 否 读取偏移校正: : 6 读取 Lead-In 和 Lead-Out : 是 用静音填充抓取中丢失偏移的采样 : 是 去除首尾静音块 : 否 在CRC 计算中使用了空样本 : 是 已用接口 : Win NT 及 2000 本地 Win32 接口 所用输出模式: : 内部 WAV 函数 样本格式 : 44.100 Hz; 16 Bit; 立体声 已抓取 CD 的 TOC 音轨 | 起始 | 长度 |起始扇区|结束扇区 -------------------------------------------- 1 |0:00.00 |5:07.48 | 0 |23072 2 |5:07.48 |4:21.10 |23073 |42657 3 |9:28.58 |3:45.06 |42658 |59538 4 | 13:13.64 |3:45.31 |59539 |76444 5 | 16:59.20 |4:33.33 |76445 |96952 6 | 21:32.53 |3:15.57 |96953 | 111634 7 | 24:48.35 |5:20.00 | 111635 | 135634 8 | 30:08.35 |6:07.31 | 135635 | 163190 9 | 36:15.66 |5:28.22 | 163191 | 187812 10 | 41:44.13 |3:46.40 | 187813 | 204802 11 | 45:30.53 |4:19.05 | 204803 | 224232 12 | 49:49.58 |3:13.06 | 224233 | 238713 13 | 53:02.64 |4:25.34 | 238714 | 258622 14 | 57:28.23 |3:39.33 | 258623 | 275080 15 | 61:07.56 |4:20.52 | 275081 | 294632 范围状态及错误 已选择范围 文件名 C:\Users\磊\Desktop\The Black Eyed Peas - The Beginning.wav 峰值电平 100.0 % 抓取速度 5.1 X 范围质量 100.0 % 复制 CRC 1AF96BCB 复制成功 没有错误发生 状态报告结尾 ---- CUETools DB Plugin V2.1.6 试听曲目:The Time (Dirty Bit) 链接:包年会员可查看

能量豆阵The E.N.D.《The Black Eyed Peas》[FLAC/MP3/无损]百度云网盘免费下载地址及提取码如下:

请登录后查阅

The Black Eyed Peasmp3下载,The Black Eyed Peasmp3百度云,The Black Eyed Peasmp3网盘下载,The Black Eyed Peasmp3免费下载地址由91f音乐网www.91f.net搜集分享,如果你觉得有侵犯你的权益,授权事宜、对本内容有异议或投诉,敬请联系网站管理员,我们将尽快回复您,谢谢合作!

能量豆阵The E.N.D.
《孙燕姿》[FLAC/MP3/无损]百度云网盘免费下载地址 心中的日月《王力宏》[FLAC/MP3/无损]百度云网盘免费下载地址

游客 回复需填写必要信息