首页DJ舞曲《Avicii》[FLAC/MP3/无损]百度云网盘免费下载地址

《Avicii》[FLAC/MP3/无损]百度云网盘免费下载地址

时间2022-11-23 22:03:00分类DJ舞曲浏览25

《Avicii》[FLAC/MP3/无损]百度云网盘免费下载地址在文尾有提供,你可以直接点击跳到文尾查看并下载。

《Avicii》[FLAC/MP3/无损]百度云网盘免费下载地址

微信截图_20221123212016.jpg (113.35 KB, 下载次数: 0) 下载附件 半小时前 上传 微信截图_20221123212026.jpg (67.58 KB, 下载次数: 0) 下载附件 半小时前 上传 专辑介绍: ◥葛莱美入围肯定,EDM天王艾维奇生前最后力作 ◥感动收录首支主打"SOS"、酷玩乐团主唱Chris Martin合作曲"Heaven"、谜幻乐团跨界帮腔"Heart Upon My Sleeve"共12首未曝光新曲 来自瑞典并享有电音天才美誉的艾维奇,自2010年出道至今,年年入选世界百大DJ之列,生涯累积专辑销售堂堂突破1700万张,可以说是EDM界的乐坛先驱。2018年4月20号,艾维奇Avicii选择在阿曼首都马斯喀特离开人世,这一天也成为全球EDM乐迷最心痛的一天,得年仅28岁的Avicii从此告别了他最爱的音乐与世界。其实就在他当初离世之前,他的全新音乐作品已经接近完成状态,但因为他的突然离世,这个消息也迟迟未公诸于世,如今他的家人与生前与他合作的创作者好友们为了纪念他,决定以Avicii做音乐的标准,用这张全新专辑【TIM】来完成他的遗愿。 本名Tim Bergling出生于瑞典斯德哥尔摩的Avicii,在2011年因一首"Levels"迅速在乐坛闯出名声,轰动欧陆各国。隔年与大卫库塔David Guetta合作的"Sunshine"让他首次获得了葛莱美提名,也闯进百大DJ季军,同时赢得了葛莱美奖的「最佳舞曲作品」入围肯定。随后首张专辑【True】获得了商业上前所未有的成功,将乡村、电子音乐、House音乐的完美跨界融合,赢得了各界赞赏,其中连续主打"Wake Me Up"、"You Make Me"、"Hey Brother" 连续狂销全球,在自己家乡瑞典写下三连冠的神话纪录。2015年的第二张专辑【Stories】依然谱出了多首舞池金曲,名列全球Spotify最多人点听的年度专辑TOP4。 就在Avicii逝世满一年后,他的家属与好友们终于决定要将他生前遗作【TIM】呈现给乐迷。瑞典环球音乐的执行长Per Sundin表示:「我们不是要完成一张伟大的作品,是要帮助Avicii 完成生前的遗愿。」而这张专辑【TIM】的所有收益也将会捐入Avicii 的基金会Tim Bergling Foundation来帮助受到自杀与精神疾病所困的人们。专辑首支单曲"SOS"找回了"Wake Me Up"中的Aloe Blacc感动献声,耐人寻味与情绪拉扯的歌词,涌上无限思念;玩味增添中东旋乐元素的"Tough Love"并找来好友民谣组合Vargas & Lagola帮腔;备受瞩目的"Heaven"是在2016与酷玩乐团Coldplay主唱Chris Martin一同碰撞出的神奇火花之作;"Heart Upon My Sleeve"则是2013年与谜幻乐团Imagine Dragons的短暂相遇,即便只先完成了一段主旋律,主唱Dan Reynolds开心回忆起「Avicii知道他自己要什么,当我们开始制作,我开始唱了主歌,他就眨了眼,说这就对了!」 Avicii的音乐故事未完待续,绝响【TIM】将继续感动世人,把每一个充满希望的音符传递到地球上每一个角落。 专辑曲目: 1. Peace Of Mind 2. Heaven 3. SOS 4. Tough Love 5. Bad Reputation 6. Ain't A Thing 7. Hold The Line 8. Freak 9. Excuse Me Mr Sir 10. Heart Upon My Sleeve 11. Never Leave Me 12. Fades Away Exact Audio Copy V1.3 from 2. September 2016 EAC 抓取日志文件从21. 十月 2019, 9:56 Avicii / Tim 使用驱动器:ASUS SDRW-08D2S-U Adapter: 1ID: 0 读取模式 : 可靠Secure 使用精确流 : 是 清空音频缓存 : 是 使用 C2 指示器 : 否 读取偏移校正: : 0 读取 Lead-In 和 Lead-Out : 否 用静音填充抓取中丢失偏移的采样 : 是 去除首尾静音块 : 否 在CRC 计算中使用了空样本 : 是 已用接口 : Win NT 及 2000 本地 Win32 接口 所用输出模式: : 内部 WAV 函数 样本格式 : 44.100 Hz; 16 Bit; 立体声 已抓取 CD 的 TOC 音轨 | 起始 | 长度 |起始扇区|结束扇区 -------------------------------------------- 1 |0:00.00 |3:00.00 | 0 |13499 2 |3:00.00 |4:37.19 |13500 |34293 3 |7:37.19 |2:37.15 |34294 |46083 4 | 10:14.34 |3:11.19 |46084 |60427 5 | 13:25.53 |3:25.31 |60428 |75833 6 | 16:51.09 |3:03.50 |75834 |89608 7 | 19:54.59 |2:51.59 |89609 | 102492 8 | 22:46.43 |2:59.36 | 102493 | 115953 9 | 25:46.04 |3:07.56 | 115954 | 130034 10 | 28:53.60 |4:14.13 | 130035 | 149097 11 | 33:07.73 |2:51.54 | 149098 | 161976 12 | 35:59.52 |2:58.73 | 161977 | 175399 范围状态及错误 已选择范围 文件名 C:\Users\Administrator\Desktop\Avicii - Tim.wav 峰值电平 97.0 % 抓取速度 4.1 X 范围质量 100.0 % 复制 CRC 66E08061 复制成功 未出现错误 状态报告结尾 ==== 记录校验日志 D60C6DB00187CD8AA8F521B03B2A703D9063B55C20C0CE7E2C81D8A4874B5B08 ==== 试听曲目:Heaven 链接:包年会员可查看

《Avicii》[FLAC/MP3/无损]百度云网盘免费下载地址及提取码如下:

请登录后查阅

Aviciimp3下载,Aviciimp3百度云,Aviciimp3网盘下载,Aviciimp3免费下载地址由91f音乐网www.91f.net搜集分享,如果你觉得有侵犯你的权益,授权事宜、对本内容有异议或投诉,敬请联系网站管理员,我们将尽快回复您,谢谢合作!

《孙燕姿》[FLAC/MP3/无损]百度云网盘免费下载地址 心中的日月《王力宏》[FLAC/MP3/无损]百度云网盘免费下载地址

游客 回复需填写必要信息