首页DJ舞曲高手《潘玮柏》[FLAC/MP3/无损]百度云网盘免费下载地址

高手《潘玮柏》[FLAC/MP3/无损]百度云网盘免费下载地址

时间2022-11-23 22:03:00分类DJ舞曲浏览18

高手《潘玮柏》[FLAC/MP3/无损]百度云网盘免费下载地址在文尾有提供,你可以直接点击跳到文尾查看并下载。

高手《潘玮柏》[FLAC/MP3/无损]百度云网盘免费下载地址

微信截图_20221123200602.jpg (106.61 KB, 下载次数: 0) 下载附件 1小时前 上传 微信截图_20221123200610.jpg (247.6 KB, 下载次数: 0) 下载附件 1小时前 上传 专辑介绍: 过近一年的精心准备,这张专辑将包含更多的音乐理念,展现潘玮柏对音乐的更深一层体验,同时也会表现玮柏在词曲等多方面的音乐才华。除了曲目外,这张专辑的各种细节至今仍保持着神秘,不过可以肯定的是,以玮柏对音乐的痴迷和执着追求,相信专辑的面世必将掀起新一轮 Wilber 旋风。 新专辑《高手》整体乐风还是以玮柏一贯的嘻哈元素为主轴,加入极具现代观点的情歌,呈现一种新世代的音乐态度。 专辑曲目: 1. 谁是MVP 2. 不得不爱 3. 高手 4. 禅舞不二 5. 不要忘了我 6. Baby Bye 7. 决战斗室 8. 跟我走吧 9. 一指神功 10. 爱很容易 Exact Audio Copy V1.3 from 2. September 2016 EAC 抓取日志文件从25. 一月 2018, 9:14 潘玮柏 / 高手 使用驱动器:ASUS SDRW-08D2S-U Adapter: 1ID: 0 读取模式 : 可靠Secure 使用精确流 : 是 清空音频缓存 : 是 使用 C2 指示器 : 否 读取偏移校正: : 0 读取 Lead-In 和 Lead-Out : 否 用静音填充抓取中丢失偏移的采样 : 是 去除首尾静音块 : 否 在CRC 计算中使用了空样本 : 是 已用接口 : Win NT 及 2000 本地 Win32 接口 所用输出模式: : 内部 WAV 函数 样本格式 : 44.100 Hz; 16 Bit; 立体声 已抓取 CD 的 TOC 音轨 | 起始 | 长度 |起始扇区|结束扇区 -------------------------------------------- 1 |0:00.00 |3:52.48 | 0 |17447 2 |3:52.48 |4:41.31 |17448 |38553 3 |8:34.04 |3:50.06 |38554 |55809 4 | 12:24.10 |3:47.15 |55810 |72849 5 | 16:11.25 |3:32.28 |72850 |88777 6 | 19:43.53 |4:02.66 |88778 | 106993 7 | 23:46.44 |3:07.70 | 106994 | 121088 8 | 26:54.39 |3:49.63 | 121089 | 138326 9 | 30:44.27 |3:42.56 | 138327 | 155032 10 | 34:27.08 |4:49.50 | 155033 | 176757 范围状态及错误 已选择范围 文件名 C:\Users\磊.000\Desktop\潘玮柏 - 高手.wav 峰值电平 100.0 % 抓取速度 4.2 X 范围质量 100.0 % 复制 CRC 48CAD890 复制成功 没有错误发生 状态报告结尾 ==== 记录校验日志 3861FB79B4E4460B2913390408E2F9C847424A42675160937408210FC40D4B2F ==== 试听曲目:不得不爱 链接:包年会员可查看

高手《潘玮柏》[FLAC/MP3/无损]百度云网盘免费下载地址及提取码如下:

请登录后查阅

潘玮柏mp3下载,潘玮柏mp3百度云,潘玮柏mp3网盘下载,潘玮柏mp3免费下载地址由91f音乐网www.91f.net搜集分享,如果你觉得有侵犯你的权益,授权事宜、对本内容有异议或投诉,敬请联系网站管理员,我们将尽快回复您,谢谢合作!

高手
《孙燕姿》[FLAC/MP3/无损]百度云网盘免费下载地址 心中的日月《王力宏》[FLAC/MP3/无损]百度云网盘免费下载地址

游客 回复需填写必要信息